<?xml version="1.0" standalone="no"?>
<!DOCTYPE svg PUBLIC "-//W3C//DTD SVG 1.1//EN" "http://www.w3.org/Graphics/SVG/1.1/DTD/svg11.dtd" >
<svg xmlns="http://www.w3.org/2000/svg" xmlns:xlink="http://www.w3.org/1999/xlink" version="1.1">
<metadata>
Created by FontForge 20200314 at Fri Feb 17 14:39:08 2012
 By User Azfonts
This font is a renamed version of Rubrik, licensed for use only within the Adani Group. Copyright (c) 2010 by Miles Newlyn. All rights reserved.
</metadata>
<defs>
<font id="Adani-Regular" horiz-adv-x="609" >
  <font-face 
    font-family="Adani Regular"
    font-weight="400"
    font-stretch="normal"
    units-per-em="1000"
    panose-1="2 0 5 3 0 0 0 2 0 4"
    ascent="750"
    descent="-250"
    x-height="515"
    cap-height="705"
    bbox="-25.1739 -284 1054.5 945"
    underline-thickness="70"
    underline-position="-100"
    unicode-range="U+0020-FB02"
  />
<missing-glyph horiz-adv-x="301" 
 />
    <glyph glyph-name="fi" unicode="fi" horiz-adv-x="665" 
d="M111 555q0 74 39.5 118.5t117.5 44.5q26 0 50 -3t38 -8q32 -9 32 -38q0 -13 -9.5 -24.5t-29.5 -11.5q-17 0 -35.5 4.5t-43.5 4.5q-41 0 -59.5 -24.5t-18.5 -68.5v-40h140q16 0 27.5 -10.5t11.5 -26.5t-11.5 -26.5t-27.5 -10.5h-140v-397q0 -18 -11.5 -30t-28.5 -12
t-29 12t-12 30v397h-35q-16 0 -27.5 10.5t-11.5 26.5t11.5 26.5t27.5 10.5h35v46zM578 657q0 -20 -14.5 -35.5t-35.5 -15.5t-35 15.5t-14 35.5q0 21 14 35.5t35 14.5t35.5 -14.5t14.5 -35.5zM528 526q17 0 29 -12.5t12 -29.5v-446q0 -18 -11.5 -30t-29.5 -12q-16 0 -28 12
t-12 30v446q0 17 11.5 29.5t28.5 12.5z" />
    <glyph glyph-name=".notdef" horiz-adv-x="301" 
 />
    <glyph glyph-name=".null" horiz-adv-x="0" 
 />
    <glyph glyph-name="nonmarkingreturn" horiz-adv-x="273" 
 />
    <glyph glyph-name="space" unicode=" " horiz-adv-x="273" 
 />
    <glyph glyph-name="space" unicode="&#xa0;" horiz-adv-x="273" 
 />
    <glyph glyph-name="C" unicode="C" horiz-adv-x="665" 
d="M355 69q61 0 109.5 32.5t71.5 86.5q5 11 14 18.5t24 7.5q14 0 26.5 -11t12.5 -28q0 -8 -3 -18q-15 -38 -41 -68.5t-59.5 -52.5t-73 -34t-81.5 -12q-60 0 -110.5 21.5t-88 59t-60 88.5t-26.5 110q-6 82 0 162q4 59 26.5 110t60 88.5t88 59t110.5 21.5q42 0 81.5 -12
t73 -33.5t59.5 -52.5t41 -68q3 -11 3 -19q0 -17 -12.5 -27.5t-26.5 -10.5q-15 0 -24 7.5t-14 18.5q-23 54 -71.5 86t-109.5 32q-44 0 -79.5 -15.5t-62 -42.5t-42 -64.5t-19.5 -81.5q-5 -77 0 -154q4 -44 19.5 -81.5t42 -64.5t62 -42.5t79.5 -15.5z" />
    <glyph glyph-name="D" unicode="D" horiz-adv-x="719" 
d="M568 298q2 25 2 53.5t-2 50.5q-3 49 -17.5 90t-43 69.5t-71 44.5t-100.5 16h-154v-543h154q58 0 100 16t70.5 44.5t43.5 69t18 89.5zM169 0q-33 0 -51 20t-18 48v565q0 29 18 48.5t51 19.5h167q76 0 133 -22t96 -61.5t60 -94t25 -118.5q2 -27 2 -55.5t-2 -53.5
q-4 -64 -25 -118t-60 -93.5t-96 -62t-133 -22.5h-167z" />
    <glyph glyph-name="E" unicode="E" horiz-adv-x="625" 
d="M515 701q17 0 29 -11.5t12 -28.5t-12.5 -28t-28.5 -11h-333v-230h324q17 0 28.5 -11t11.5 -28q0 -16 -12 -27.5t-28 -11.5h-324v-235h335q16 0 28.5 -11t12.5 -28t-12 -28.5t-29 -11.5h-347q-34 0 -52 20t-18 48v565q0 29 18 48.5t52 19.5h345z" />
    <glyph glyph-name="F" unicode="F" horiz-adv-x="594" 
d="M100 633q0 29 18 48.5t52 19.5h343q17 0 29.5 -11t12.5 -28t-12.5 -28.5t-29.5 -11.5h-331v-245h314q17 0 29 -11.5t12 -28.5t-12.5 -28t-28.5 -11h-314v-260q0 -17 -12 -29.5t-29 -12.5t-29 12.5t-12 29.5v595z" />
    <glyph glyph-name="G" unicode="G" horiz-adv-x="701" 
d="M633 240q0 -50 -19.5 -95.5t-55 -80t-85.5 -54.5t-111 -20q-60 0 -112 21.5t-90.5 59t-62 88.5t-27.5 110q-6 82 0 162q4 59 28 110t62.5 88.5t90 59t111.5 21.5q86 0 152 -41t101 -113q4 -8 4 -20q0 -17 -12 -28.5t-29 -11.5q-12 0 -21.5 6.5t-14.5 15.5
q-26 52 -71.5 82.5t-107.5 30.5q-44 0 -81 -15.5t-64.5 -42.5t-44.5 -64.5t-21 -81.5q-6 -79 0 -154q4 -44 21 -81.5t45 -64.5t64.5 -42.5t80.5 -15.5q42 0 77 12t60 33.5t38.5 51.5t13.5 65v62h-143q-17 0 -29.5 11.5t-12.5 28.5t12.5 28.5t29.5 11.5h155q34 0 51.5 -19.5
t17.5 -47.5v-66z" />
    <glyph glyph-name="H" unicode="H" horiz-adv-x="755" 
d="M100 663q0 17 12 29.5t29 12.5q18 0 29.5 -12.5t11.5 -29.5v-273h390v273q0 17 12 29.5t29 12.5q18 0 29.5 -12.5t11.5 -29.5v-625q0 -17 -11.5 -29.5t-29.5 -12.5q-17 0 -29 12.5t-12 29.5v273h-390v-273q0 -18 -11.5 -30t-29.5 -12q-17 0 -29 12.5t-12 29.5v625z" />
    <glyph glyph-name="I" unicode="I" horiz-adv-x="283" 
d="M100 663q0 17 12 29.5t29 12.5q18 0 29.5 -12.5t11.5 -29.5v-625q0 -17 -11.5 -29.5t-29.5 -12.5q-17 0 -29 12.5t-12 29.5v625z" />
    <glyph glyph-name="J" unicode="J" horiz-adv-x="516" 
d="M40 100q-2 5 -3 9.5t-1 9.5q0 16 11 28t28 12q14 0 23 -6.5t15 -17.5q16 -29 43 -47.5t64 -18.5q24 0 45 8.5t37.5 25t26 42t9.5 60.5v458q0 17 12 29.5t29 12.5q18 0 29.5 -12.5t11.5 -29.5v-464q0 -47 -16 -85t-43 -66t-63.5 -43t-77.5 -15q-60 0 -108.5 30.5
t-71.5 79.5z" />
    <glyph glyph-name="K" unicode="K" horiz-adv-x="633" 
d="M605 38q0 -16 -12 -28.5t-28 -12.5t-28 12l-292 282q-16 17 -29.5 20t-33.5 3v-276q0 -17 -11.5 -29.5t-29.5 -12.5q-17 0 -29 12.5t-12 29.5v625q0 17 12 29.5t29 12.5q18 0 29.5 -12.5t11.5 -29.5v-269q21 0 33.5 4t29.5 20l285 273q6 7 14 10t16 3q16 0 27.5 -12
t11.5 -28t-12 -28l-294 -279l300 -290q12 -14 12 -29z" />
    <glyph glyph-name="L" unicode="L" horiz-adv-x="556" 
d="M100 663q0 17 12 29.5t29 12.5q18 0 29.5 -12.5t11.5 -29.5v-584h327q17 0 29.5 -11t12.5 -28q0 -18 -12 -29t-30 -11h-342q-32 0 -49.5 19t-17.5 46v598z" />
    <glyph glyph-name="M" unicode="M" horiz-adv-x="926" 
d="M861 47q3 -21 -7.5 -36.5t-33.5 -15.5q-16 0 -27 9t-13 24l-82 589q-2 10 -10 10t-12 -9l-130 -543q-9 -38 -30.5 -57t-52.5 -19q-32 0 -53.5 19t-30.5 57l-130 543q-4 9 -11 9q-5 0 -7.5 -3.5t-3.5 -6.5l-82 -589q-2 -15 -12.5 -24t-26.5 -9q-23 0 -33.5 15.5t-7.5 35.5
l86 584q6 42 30.5 60.5t56.5 18.5t55 -18t31 -53l129 -551q1 -3 3.5 -6.5t7.5 -3.5t7.5 3.5t3.5 6.5l126 551q8 35 31.5 53t55.5 18t56 -18.5t30 -60.5l87 -583v0z" />
    <glyph glyph-name="N" unicode="N" horiz-adv-x="769" 
d="M588 97h2q-1 30 -2.5 64.5t-1.5 84.5v417q0 17 12 29.5t29 12.5q18 0 29.5 -12.5t11.5 -29.5v-595q0 -29 -18.5 -49.5t-47.5 -20.5q-43 0 -66 37l-355 575h-2q1 -31 2 -69t1 -86v-417q0 -18 -11.5 -30t-29.5 -12q-17 0 -29 12.5t-12 29.5v593q0 31 19 52t51 21
q20 0 37.5 -8.5t30.5 -30.5z" />
    <glyph glyph-name="O" unicode="O" horiz-adv-x="729" 
d="M363 -10q-60 0 -111.5 21.5t-90.5 59t-63 88.5t-28 110q-6 82 0 162q4 59 28 110t63 88.5t90.5 59t111.5 21.5t112.5 -21.5t92 -59.5t63.5 -89t28 -109q6 -80 0 -162q-4 -59 -28 -110t-63.5 -88.5t-92 -59t-112.5 -21.5zM363 69q44 0 81.5 15.5t65.5 42.5t45 64.5
t21 81.5q8 77 0 155q-4 44 -21.5 81t-45.5 64t-65.5 42.5t-80.5 15.5t-80 -15.5t-64.5 -42.5t-45 -64t-21.5 -81q-6 -78 0 -155q4 -44 21.5 -81.5t45 -64.5t64.5 -42.5t80 -15.5z" />
    <glyph glyph-name="P" unicode="P" horiz-adv-x="644" 
d="M361 341q82 0 117 39t35 101q0 64 -35.5 102.5t-111.5 38.5h-184v-281h179zM182 262v-224q0 -17 -12 -29.5t-29 -12.5t-29 12.5t-12 29.5v596q0 28 17.5 47.5t50.5 19.5h202q46 0 87.5 -14.5t72.5 -42.5t49 -69t18 -93q0 -53 -17.5 -93.5t-49 -69t-74.5 -43t-94 -14.5
h-180z" />
    <glyph glyph-name="Q" unicode="Q" horiz-adv-x="730" 
d="M363 -10q-60 0 -111.5 21.5t-90.5 59t-63 88.5t-28 110q-6 82 0 162q4 59 28 110t63 88.5t90.5 59t111.5 21.5t112.5 -21.5t92 -59.5t63.5 -89t28 -109q6 -80 0 -162q-5 -63 -31 -115t-68 -90l93 -114q11 -13 9.5 -29t-13.5 -26t-28 -8.5t-26 13.5l-99 120
q-29 -14 -63 -22t-70 -8zM363 69q43 0 81 15l-97 119q-9 11 -8.5 27t12.5 27t29 9.5t27 -14.5l102 -126q28 28 45.5 65t21.5 82q8 77 0 155q-4 44 -21.5 81t-45.5 64t-65.5 42.5t-80.5 15.5t-80 -15.5t-64.5 -42.5t-45 -64t-21.5 -81q-6 -78 0 -155q4 -44 21.5 -81.5
t45 -64.5t64.5 -42.5t80 -15.5z" />
    <glyph glyph-name="R" unicode="R" horiz-adv-x="678" 
d="M619 39q0 -17 -12.5 -30t-29.5 -13q-18 0 -30 14l-188 232q-12 15 -23.5 23.5t-32.5 8.5h-121v-236q0 -17 -12 -29.5t-29 -12.5t-29 12.5t-12 29.5v596q0 28 17.5 47.5t50.5 19.5h204q46 0 87 -14t72 -41t49 -67.5t18 -92.5q0 -45 -12.5 -79t-35 -58t-54 -39t-68.5 -21
l182 -225q9 -11 9 -25zM362 352q42 0 71.5 9.5t47.5 27.5t26 42.5t8 54.5q0 63 -36 99.5t-112 36.5h-185v-270h180z" />
    <glyph glyph-name="S" unicode="S" horiz-adv-x="619" 
d="M331 394q65 -12 111.5 -28.5t76 -39.5t43 -54.5t13.5 -74.5q0 -45 -17 -83t-49.5 -65.5t-79.5 -43t-107 -15.5q-82 0 -139.5 21t-102.5 52q-21 13 -21 36q0 18 12 30t30 12q6 0 13 -2.5t17 -9.5q37 -26 80 -42.5t112 -16.5q80 0 124.5 33.5t44.5 93.5q0 24 -9 42
t-30 31.5t-55.5 24t-86.5 20.5q-121 23 -179 68t-58 127q0 46 17.5 83.5t49.5 63t76.5 39.5t97.5 14q62 0 115 -15.5t82 -40.5q16 -13 16 -34q0 -16 -11.5 -27.5t-26.5 -11.5q-10 0 -17.5 3t-14.5 7q-29 16 -64 28t-79 12t-74 -9.5t-49 -26t-27 -38t-8 -45.5t8.5 -42
t29 -31.5t53.5 -24t83 -20.5z" />
    <glyph glyph-name="T" unicode="T" horiz-adv-x="600" 
d="M260 622h-200q-17 0 -29.5 11t-12.5 28q0 18 12.5 29t29.5 11h480q17 0 29 -11t12 -29q0 -17 -12 -28t-29 -11h-198v-584q0 -17 -12 -29.5t-29 -12.5t-29 12.5t-12 29.5v584z" />
    <glyph glyph-name="U" unicode="U" horiz-adv-x="748" 
d="M657 284q0 -66 -21.5 -120t-59.5 -92.5t-89.5 -60t-112.5 -21.5t-112.5 21.5t-89.5 60t-59.5 92.5t-21.5 120v379q0 17 12 29.5t29 12.5t29 -12.5t12 -29.5v-378q0 -50 15 -90t42 -68t63.5 -43t80.5 -15q43 0 80 15t64 43t42 68t15 90v378q0 17 12 29.5t29 12.5t29 -12.5
t12 -29.5v-379z" />
    <glyph glyph-name="V" unicode="V" horiz-adv-x="664" 
d="M23 661q0 16 11.5 29.5t30.5 13.5q12 0 22.5 -7t15.5 -20l217 -597q2 -3 4.5 -6t7.5 -3t8 3t4 6l217 596q5 14 15.5 21t23.5 7q19 0 29.5 -13.5t10.5 -29.5q0 -6 -2 -14l-218 -585q-27 -72 -88 -72q-62 0 -89 72l-217 585q-3 7 -3 14z" />
    <glyph glyph-name="W" unicode="W" horiz-adv-x="926" 
d="M39 664q0 15 10 27.5t30 12.5q14 0 26 -8t14 -22l126 -606q1 -2 3 -2t3 2l149 574q8 31 28.5 46t44.5 15q22 0 42.5 -15t28.5 -46l148 -574q1 -3 3 -3t3 3l129 606q4 14 15 22t25 8q20 0 30 -13t10 -28q0 -7 -1 -10l-140 -601q-7 -30 -27.5 -45.5t-43.5 -15.5t-44 15.5
t-29 44.5l-148 570q-1 2 -2.5 2t-2.5 -2l-150 -570q-8 -29 -28 -45t-43 -16q-24 0 -45 16t-28 47l-135 600q-1 4 -1 11z" />
    <glyph glyph-name="X" unicode="X" horiz-adv-x="645" 
d="M569 704q17 0 29 -12.5t12 -28.5q0 -15 -10 -28l-226 -287l223 -284q10 -13 10 -29q0 -15 -12 -26.5t-29 -11.5q-9 0 -18 4t-15 12l-210 269l-213 -270q-12 -15 -34 -15q-17 0 -29 12t-12 28q0 14 10 27l224 285l-224 287q-10 13 -10 27q0 16 13 28t30 12q19 0 32 -16
l212 -272l213 272q14 17 34 17z" />
    <glyph glyph-name="Y" unicode="Y" horiz-adv-x="647" 
d="M589 705q17 0 29.5 -12t12.5 -29q0 -16 -10 -27l-230 -282q-12 -15 -19.5 -25.5t-7.5 -31.5v-260q0 -17 -11.5 -29.5t-29.5 -12.5q-17 0 -29 12.5t-12 29.5v260q0 21 -7.5 32t-19.5 26l-229 280q-5 6 -7.5 13.5t-2.5 14.5q0 16 12.5 28t29.5 12q20 0 32 -15l233 -292
l234 292q13 16 32 16z" />
    <glyph glyph-name="Z" unicode="Z" horiz-adv-x="586" 
d="M125 0q-35 0 -54.5 18.5t-19.5 47.5q0 24 20 50l365 506h-339q-17 0 -29 10.5t-12 27.5q0 18 12 29.5t29 11.5h357q35 0 54 -18.5t19 -46.5q0 -14 -6 -26.5t-17 -29.5l-362 -501h364q17 0 29.5 -11t12.5 -28q0 -18 -12.5 -29t-29.5 -11h-381z" />
    <glyph glyph-name="a" unicode="a" horiz-adv-x="562" 
d="M481 80q0 -11 -3.5 -19t-13.5 -14q-10 -8 -29.5 -17.5t-46 -18t-59.5 -14.5t-69 -6q-99 0 -149.5 47.5t-50.5 122.5q0 33 12.5 62.5t37.5 51.5t62.5 35t88.5 13q36 0 68.5 -5t71.5 -16v41q0 61 -30.5 88t-94.5 27q-35 0 -66 -9t-53 -17q-26 -10 -42 1t-16 30q0 11 6 21
t20 17q23 11 65.5 21.5t93.5 10.5q45 0 81 -11t62 -33.5t40 -58t14 -84.5v-266zM269 64q30 0 53.5 4.5t39.5 10.5t26 12.5t13 9.5v131q-38 10 -69.5 16t-69.5 6q-51 0 -86 -23.5t-35 -67.5q0 -48 31.5 -73.5t96.5 -25.5z" />
    <glyph glyph-name="b" unicode="b" horiz-adv-x="601" 
d="M527 335q1 -14 1.5 -33t0.5 -38.5t-0.5 -38.5t-1.5 -32q-8 -93 -64.5 -147.5t-156.5 -54.5q-34 0 -65.5 7t-58 16.5t-46 20t-28.5 16.5q-11 8 -13.5 15t-2.5 18v585q0 17 11.5 29.5t28.5 12.5t29 -12.5t12 -29.5v-168q27 12 64.5 22t79.5 10q96 0 149 -52t61 -146z
M445 199q1 13 1.5 30.5t0.5 36t-0.5 35.5t-1.5 28q-4 63 -35 95.5t-96 32.5q-45 0 -84 -12t-57 -23v-314q8 -6 23 -13.5t33 -13.5t38 -10t38 -4q128 0 140 132z" />
    <glyph glyph-name="c" unicode="c" horiz-adv-x="557" 
d="M298 67q39 0 74.5 20.5t53.5 64.5q7 15 16.5 21t22.5 6q16 0 27 -11.5t11 -29.5q0 -17 -12.5 -42.5t-38 -48.5t-64.5 -39.5t-91 -16.5q-48 0 -88.5 15.5t-69.5 43t-46 64.5t-20 79q-1 15 -1.5 33.5t-0.5 37.5t0.5 37.5t1.5 33.5q3 44 20.5 80.5t47 62.5t69.5 40.5
t87 14.5q52 0 90.5 -16.5t63.5 -40t37.5 -48.5t12.5 -42q0 -18 -11 -29.5t-27 -11.5q-12 0 -22 6t-17 21q-17 44 -52 64.5t-74 20.5q-63 0 -101 -34.5t-43 -92.5q-1 -10 -1.5 -27t-0.5 -36t0.5 -37.5t1.5 -31.5q5 -56 41.5 -93.5t102.5 -37.5z" />
    <glyph glyph-name="d" unicode="d" horiz-adv-x="601" 
d="M74 334q8 94 61 146.5t149 52.5q41 0 79 -10t65 -22v168q0 17 11.5 29.5t28.5 12.5q18 0 29.5 -12.5t11.5 -29.5v-585q0 -11 -3 -18t-14 -15q-9 -6 -28 -16.5t-45.5 -20t-58 -16.5t-65.5 -7q-100 0 -156.5 54.5t-64.5 147.5q-1 13 -1.5 31.5t-0.5 38.5t0.5 38.5t1.5 32.5
zM155 199q12 -132 141 -132q18 0 38 4t38 10t33 13.5t23 13.5v314q-18 11 -57 23t-84 12q-65 0 -96 -32.5t-36 -94.5q-1 -11 -1.5 -28t-0.5 -36t0.5 -36.5t1.5 -30.5z" />
    <glyph glyph-name="e" unicode="e" horiz-adv-x="572" 
d="M510 286q0 -26 -14 -42t-45 -16h-299v-16q0 -71 41.5 -109t107.5 -38q27 0 57.5 7t64.5 19q13 5 24 4t18.5 -6t11.5 -13t4 -17q0 -10 -4.5 -19t-17.5 -17q-12 -7 -30.5 -13t-40 -10t-44.5 -6.5t-44 -2.5q-52 0 -93 15.5t-70 44t-45 68t-19 87.5q-2 29 -1.5 63t2.5 57
q4 48 22 86.5t47 65.5t67.5 41t84.5 14q49 0 89 -16t68 -45t43 -68.5t15 -87.5v-30zM418 296q11 0 13 12q2 34 -6.5 62t-26.5 48t-44 31t-58 11q-74 0 -110 -44.5t-34 -119.5h266z" />
    <glyph glyph-name="f" unicode="f" horiz-adv-x="393" 
d="M111 555q0 74 39.5 118.5t117.5 44.5q26 0 50 -3t38 -8q32 -9 32 -38q0 -13 -9.5 -24.5t-29.5 -11.5q-17 0 -35.5 4.5t-43.5 4.5q-41 0 -59.5 -24.5t-18.5 -68.5v-40h140q16 0 27.5 -10.5t11.5 -26.5t-11.5 -26.5t-27.5 -10.5h-140v-397q0 -18 -11.5 -30t-28.5 -12
t-29 12t-12 30v397h-35q-16 0 -27.5 10.5t-11.5 26.5t11.5 26.5t27.5 10.5h35v46z" />
    <glyph glyph-name="g" unicode="g" horiz-adv-x="600" 
d="M508 46q0 -57 -17 -100.5t-47 -72.5t-71 -44t-90 -15q-52 0 -92 13t-66 29q-20 12 -27.5 22t-7.5 21t8 24.5t30 13.5q13 0 23.5 -5.5t19.5 -10.5q23 -13 48.5 -22.5t63.5 -9.5q28 0 54 9t46 26.5t32 43.5t12 61v10q-27 -13 -65 -23.5t-82 -10.5q-94 0 -147.5 54
t-59.5 145q-1 11 -1.5 28t-0.5 35t0.5 35t1.5 28q3 44 18.5 81.5t43 64.5t66.5 42t90 15q34 0 66 -6.5t58.5 -15.5t46.5 -18.5t29 -16.5t13 -15t4 -25v-390zM294 456q-71 0 -103 -36t-37 -95q-1 -12 -1.5 -28t-0.5 -32t0.5 -31t1.5 -25q5 -62 35.5 -95.5t98.5 -33.5
q26 0 48.5 4.5t40.5 11t31 13.5t19 12v299q-1 1 -11.5 7t-28 12.5t-41.5 11.5t-52 5z" />
    <glyph glyph-name="h" unicode="h" horiz-adv-x="610" 
d="M173 467q26 27 67.5 46.5t89.5 19.5q43 0 79.5 -13t62 -38.5t40 -64t14.5 -88.5v-291q0 -18 -12 -30t-29 -12t-28.5 12t-11.5 30v284q0 63 -32 98.5t-92 35.5q-45 0 -85 -22.5t-63 -54.5v-341q0 -18 -11.5 -30t-29.5 -12q-17 0 -28.5 12t-11.5 30v631q0 17 11.5 29.5
t28.5 12.5t29 -12.5t12 -29.5v-202z" />
    <glyph glyph-name="i" unicode="i" horiz-adv-x="273" 
d="M186 657q0 -20 -14.5 -35.5t-35.5 -15.5t-35 15.5t-14 35.5q0 21 14 35.5t35 14.5t35.5 -14.5t14.5 -35.5zM136 526q17 0 29 -12.5t12 -29.5v-446q0 -18 -11.5 -30t-29.5 -12q-16 0 -28 12t-12 30v446q0 17 11.5 29.5t28.5 12.5z" />
    <glyph glyph-name="j" unicode="j" horiz-adv-x="266" 
d="M42 -191q-17 0 -28.5 11.5t-11.5 28.5q0 14 12 28q22 24 36.5 46t23 44.5t12 48t3.5 57.5v411q0 17 11.5 29.5t28.5 12.5t29 -12.5t12 -29.5v-408q0 -44 -6.5 -79.5t-19 -65.5t-30.5 -56.5t-41 -51.5q-12 -14 -31 -14zM179 657q0 -20 -14.5 -35.5t-35.5 -15.5t-35 15.5
t-14 35.5q0 21 14 35.5t35 14.5t35.5 -14.5t14.5 -35.5z" />
    <glyph glyph-name="k" unicode="k" horiz-adv-x="535" 
d="M463 528q17 0 28 -12t11 -28q0 -17 -12 -29l-197 -189l200 -203q12 -13 13 -29t-11 -30q-11 -13 -29 -12t-29 13l-191 196q-15 15 -26.5 19.5t-28.5 4.5h-18v-191q0 -18 -11.5 -30t-29.5 -12q-17 0 -28.5 12.5t-11.5 29.5v631q0 17 11.5 29t28.5 12t29 -12t12 -29v-361
h17q17 0 29 4t27 19l187 184q12 13 30 13z" />
    <glyph glyph-name="l" unicode="l" horiz-adv-x="265" 
d="M132 710q17 0 29 -12t12 -29v-631q0 -18 -11.5 -30t-29.5 -12q-17 0 -28.5 12t-11.5 30v631q0 17 11.5 29t28.5 12z" />
    <glyph glyph-name="m" unicode="m" horiz-adv-x="874" 
d="M790 38q0 -18 -11.5 -30t-28.5 -12t-29 12t-12 30v286q0 69 -29 100.5t-85 31.5q-42 0 -70.5 -16t-43.5 -37v-365q0 -18 -11.5 -30t-28.5 -12t-29 12t-12 30v295q0 65 -30.5 94t-83.5 29q-29 0 -50 -5t-35 -11t-21 -11t-8 -6v-385q0 -18 -11.5 -30t-28.5 -12t-29 12
t-12 30v404q0 14 5 22t16 17q29 22 74.5 37t98.5 15q107 0 154 -61q12 10 26.5 20.5t33.5 19.5t43.5 15t54.5 6q103 0 148 -52.5t45 -151.5v-291z" />
    <glyph glyph-name="n" unicode="n" 
d="M525 38q0 -18 -11 -30t-29 -12q-17 0 -29 12t-12 30v287q0 34 -11 59t-29 41t-42.5 23.5t-51.5 7.5q-42 0 -80 -10.5t-58 -22.5v-385q0 -18 -11.5 -30t-28.5 -12t-29 12t-12 30v405q0 14 4.5 21.5t13.5 14.5q10 8 29 17.5t44.5 17.5t58 13.5t71.5 5.5q106 0 159.5 -52.5
t53.5 -151.5v-291z" />
    <glyph glyph-name="o" unicode="o" horiz-adv-x="592" 
d="M296 533q46 0 86 -14.5t69.5 -40.5t47 -62.5t20.5 -80.5q2 -31 2 -71.5t-2 -70.5q-3 -44 -20.5 -81t-47 -64t-69.5 -42t-86 -15t-85.5 15t-69.5 42t-47.5 64t-20.5 81q-1 15 -1.5 33.5t-0.5 37.5t0.5 37.5t1.5 33.5q3 44 20.5 80.5t47.5 62.5t69.5 40.5t85.5 14.5z
M296 457q-63 0 -100.5 -36t-41.5 -92q-1 -13 -1.5 -30.5t-0.5 -35.5t0.5 -35t1.5 -30q5 -59 43 -95t99 -36t99 36t43 95q1 13 1 30v35v35.5t-1 30.5q-4 56 -41.5 92t-100.5 36z" />
    <glyph glyph-name="p" unicode="p" horiz-adv-x="600" 
d="M527 190q-8 -94 -64 -146.5t-156 -52.5q-38 0 -73.5 10t-61.5 22v-175q0 -17 -11.5 -29.5t-28.5 -12.5t-29 12.5t-12 29.5v593q0 10 3 17t13 14q9 7 29 17t47 20t59.5 17t67.5 7q98 0 153.5 -54.5t63.5 -147.5q1 -13 1.5 -32t0.5 -38.5t-0.5 -38.5t-1.5 -32zM445 325
q-12 132 -136 132q-19 0 -39.5 -4t-39.5 -10t-34 -13.5t-24 -13.5v-312q8 -5 22 -11.5t31.5 -12t38 -9.5t41.5 -4q69 0 102 32.5t38 94.5q1 11 1.5 28t0.5 36t-0.5 36.5t-1.5 30.5z" />
    <glyph glyph-name="q" unicode="q" horiz-adv-x="601" 
d="M74 189q-1 14 -1.5 33t-0.5 38.5t0.5 38t1.5 32.5q8 93 63 147.5t153 54.5q35 0 68 -7t60 -17t47 -20t29 -17q10 -7 12.5 -14t2.5 -17v-593q0 -17 -11.5 -29.5t-29.5 -12.5q-17 0 -28.5 12.5t-11.5 29.5v175q-26 -12 -63 -22t-76 -10q-98 0 -152.5 52t-62.5 146zM155 325
q-1 -13 -1.5 -30.5t-0.5 -36t0.5 -35.5t1.5 -28q5 -63 37.5 -95.5t98.5 -32.5q44 0 82 12t55 23v314q-9 6 -24 13.5t-34 13.5t-39 10t-39 4q-125 0 -137 -132z" />
    <glyph glyph-name="r" unicode="r" horiz-adv-x="378" 
d="M335 522q32 -8 32 -38q0 -12 -9.5 -24.5t-30.5 -12.5q-15 0 -34 4t-45 4q-42 -1 -61.5 -22.5t-19.5 -67.5v-328q0 -17 -12 -29t-29 -12t-29 12t-12 29v337q0 74 42 116.5t121 42.5q26 0 49.5 -3t37.5 -8z" />
    <glyph glyph-name="s" unicode="s" horiz-adv-x="487" 
d="M308 292q133 -34 133 -141q0 -37 -14 -66.5t-39.5 -50.5t-61.5 -32t-79 -11q-110 0 -178 56q-12 10 -14 26t6 28q10 13 25 16t31 -8q13 -9 25.5 -17.5t28.5 -14.5t36 -9.5t47 -3.5q51 0 79 24t28 59q0 26 -18.5 43.5t-61.5 28.5q-13 3 -20.5 4.5t-14 3t-15 3.5t-22.5 6
q-70 18 -105.5 51.5t-35.5 90.5q0 36 13.5 64.5t38.5 48.5t59.5 31t75.5 11q43 0 81.5 -12.5t61.5 -30.5q15 -12 14.5 -29t-9.5 -27q-10 -11 -25 -12t-29 7q-24 14 -47.5 22t-49.5 8q-53 0 -79 -20.5t-26 -57.5q0 -24 16.5 -40.5t61.5 -28.5q24 -7 47.5 -12t35.5 -8z" />
    <glyph glyph-name="t" unicode="t" horiz-adv-x="408" 
d="M343 8q-20 -8 -47 -12.5t-56 -4.5q-40 0 -69 12.5t-48 34.5t-28 52.5t-9 65.5v435q0 17 11.5 29t28.5 12t29 -12t12 -29v-82h151q15 0 26.5 -10.5t11.5 -26.5t-11.5 -26.5t-26.5 -10.5h-151v-282q0 -38 18 -62.5t59 -24.5q22 0 42 6.5t38 11.5q25 6 38.5 -6t13.5 -31
q0 -28 -33 -39z" />
    <glyph glyph-name="u" unicode="u" 
d="M84 484q0 17 11.5 29.5t28.5 12.5t29 -12.5t12 -29.5v-290q0 -59 35.5 -92.5t98.5 -33.5q48 0 82 11.5t56 25.5v379q0 17 11.5 29.5t28.5 12.5t29 -12.5t12 -29.5v-400q0 -22 -17 -33q-11 -8 -29.5 -18.5t-44 -19.5t-57.5 -15.5t-71 -6.5q-48 0 -87.5 13.5t-68 39.5
t-44 64t-15.5 87v289z" />
    <glyph glyph-name="v" unicode="v" horiz-adv-x="513" 
d="M449 526q22 0 34 -18t4 -40l-153 -411q-24 -63 -78 -63q-52 0 -75 62l-155 413q-9 23 3.5 40.5t35.5 17.5q13 0 22.5 -8.5t14.5 -20.5l150 -415q2 -4 5 -4t5 4l147 411q5 14 15.5 23t24.5 9z" />
    <glyph glyph-name="w" unicode="w" horiz-adv-x="812" 
d="M412 433q-1 4 -5 4q-5 0 -5 -4l-102 -382q-8 -32 -27 -47.5t-45 -15.5t-46.5 15t-28.5 47l-116 420q-6 23 5 40.5t32 17.5q13 0 23 -7.5t14 -21.5l113 -422q2 -5 5 -5t5 5l101 392q7 28 27 43.5t45 15.5q26 0 45 -15.5t27 -44.5l101 -391q2 -5 5 -5t5 5l109 419
q3 15 14 23.5t26 8.5q22 0 32.5 -18t4.5 -40l-117 -420q-9 -32 -28.5 -47t-45.5 -15t-46 15t-28 47z" />
    <glyph glyph-name="x" unicode="x" horiz-adv-x="544" 
d="M494 35q0 -15 -11.5 -27t-28.5 -12q-20 0 -32 15l-150 192l-149 -192q-6 -8 -15 -11.5t-18 -3.5q-17 0 -28.5 12t-11.5 28q0 15 10 26l161 204l-153 193q-10 11 -10 27q0 14 11.5 26.5t28.5 12.5q20 0 32 -15l141 -181l141 180q6 8 15.5 12t19.5 4q17 0 28 -11.5
t11 -27.5q0 -15 -10 -28l-152 -193l160 -203q10 -11 10 -27z" />
    <glyph glyph-name="y" unicode="y" horiz-adv-x="512" 
d="M27 467q-9 23 3 40.5t35 17.5q15 0 23.5 -8t14.5 -21l155 -357q4 -8 8 0l141 354q5 14 15 23t25 9q23 0 35 -18.5t3 -39.5l-188 -456q-29 -69 -67.5 -119.5t-71.5 -70.5q-20 -12 -36 -12t-28 10.5t-12 27.5q0 10 5 20t14 15q32 18 64 54.5t52 96.5z" />
    <glyph glyph-name="z" unicode="z" horiz-adv-x="509" 
d="M143 75h274q17 0 28.5 -10.5t11.5 -26.5q0 -17 -11.5 -27.5t-28.5 -10.5h-290q-33 0 -52 18t-19 44q0 14 5.5 27.5t14.5 24.5l297 326h-263q-16 0 -28 10t-12 27t12 27.5t28 10.5h278q32 0 50 -16.5t20 -41.5q3 -32 -24 -62z" />
    <glyph glyph-name="zero" unicode="0" horiz-adv-x="696" 
d="M348 -10q-56 0 -103 20t-81 55.5t-54.5 85t-23.5 108.5q-1 20 -1.5 44t-0.5 49t0.5 48.5t1.5 43.5q4 59 24 108t54.5 84t81 54.5t102.5 19.5t102.5 -19.5t81 -54.5t55 -84t23.5 -108q1 -20 1.5 -44t0.5 -48.5t-0.5 -48.5t-1.5 -44q-3 -59 -23.5 -108.5t-55 -85t-81 -55.5
t-102.5 -20zM348 69q79 0 126 53t54 141q1 19 1.5 42t0.5 47t-0.5 47t-1.5 42q-5 88 -53 139t-127 51t-127 -51t-53 -139q-1 -19 -1.5 -42t-0.5 -47t0.5 -47t1.5 -42q7 -88 54 -141t126 -53z" />
    <glyph glyph-name="one" unicode="1" horiz-adv-x="460" 
d="M277 705q18 0 29.5 -12.5t11.5 -29.5v-625q0 -18 -12 -30t-29 -12t-29 12.5t-12 29.5v557l-125 -69q-15 -9 -31.5 -5t-24.5 19q-8 14 -3 31t19 25l184 103q10 6 22 6z" />
    <glyph glyph-name="two" unicode="2" horiz-adv-x="588" 
d="M59 58q0 66 37 120.5t118 111.5q60 43 100.5 72t64.5 53t34 47.5t10 53.5q0 20 -7.5 40.5t-24.5 37t-43.5 27t-65.5 10.5q-52 0 -88 -21t-59 -50q-4 -5 -9.5 -10t-13.5 -7q-17 -5 -32 2t-20 22q-6 20 5 36q14 19 34 38t47 34.5t60 25t73 9.5q55 0 97.5 -15.5t71 -42
t43 -61.5t14.5 -75t-11.5 -70.5t-37.5 -60.5t-67 -62t-101 -75q-71 -51 -107.5 -89.5t-38.5 -79.5h336q17 0 29.5 -10.5t12.5 -27.5q0 -18 -12.5 -29.5t-29.5 -11.5h-360q-26 0 -42.5 15.5t-16.5 42.5z" />
    <glyph glyph-name="three" unicode="3" horiz-adv-x="591" 
d="M300 441q45 1 83 -12t66 -38t43.5 -60t15.5 -77q0 -60 -26 -108t-74.5 -81t-118 -50.5t-155.5 -17.5h-24t-24 1q-18 1 -30 12t-12 28q0 18 13 29.5t34 9.5q31 -3 60 -3q63 0 113.5 12t86.5 35t55.5 56t19.5 75q0 57 -37.5 89t-97.5 32q-29 0 -44.5 -4t-28.5 -4
q-16 0 -27.5 10.5t-11.5 27.5t12 29l176 190h-282q-18 0 -30 11t-12 28q0 18 12 29t30 11h322q26 0 43.5 -16t17.5 -41q0 -9 -3 -19t-11 -19z" />
    <glyph glyph-name="four" unicode="4" horiz-adv-x="665" 
d="M500 171v-130q0 -17 -12 -29t-29 -12t-28.5 12t-11.5 29v130h-291q-31 0 -51 18.5t-18 48.5q0 23 18 47l266 354q22 29 41.5 48.5t48.5 19.5q23 0 36.5 -9.5t20 -22.5t8.5 -27.5t2 -24.5v-372h74q17 0 28.5 -11.5t11.5 -29.5q0 -16 -12 -27.5t-28 -11.5h-74zM419 251v361
l-272 -361h272z" />
    <glyph glyph-name="five" unicode="5" horiz-adv-x="606" 
d="M543 270q0 -67 -30.5 -118.5t-86 -86t-134.5 -52.5t-175 -18q-18 0 -30.5 10t-12.5 30t12 30t29 10q79 0 143 11.5t109 35t69.5 60t24.5 86.5q0 53 -38 85.5t-99 32.5q-29 0 -54 -5t-45.5 -11.5t-36 -14t-26.5 -13.5q-16 -7 -28.5 -6t-21.5 7.5t-13.5 16.5t-4.5 22v252
q0 38 21 52.5t48 14.5h297q18 0 30 -11.5t12 -28.5t-12.5 -28t-29.5 -11h-290v-197q30 15 67 27t92 12q49 0 88.5 -14.5t67.5 -40.5t43 -61.5t15 -77.5z" />
    <glyph glyph-name="six" unicode="6" horiz-adv-x="668" 
d="M508 623q-14 0 -34.5 4t-61.5 4q-100 0 -164.5 -58.5t-75.5 -168.5q32 14 77.5 28.5t104.5 14.5q55 0 99.5 -15t76 -43.5t48.5 -69.5t17 -92q0 -48 -15.5 -91t-47 -75.5t-78.5 -51.5t-110 -19q-75 0 -127 28t-82.5 78t-42.5 118.5t-7 149.5q10 168 95.5 257t231.5 89
q22 0 50.5 -2.5t51.5 -7.5q13 -3 23 -13t10 -26q0 -15 -10 -26.5t-29 -11.5zM347 370q-59 0 -103.5 -16.5t-77.5 -34.5q-7 -125 40 -187.5t138 -62.5q43 0 74.5 12.5t52.5 33.5t31.5 50t10.5 62q0 69 -42 106t-124 37z" />
    <glyph glyph-name="seven" unicode="7" horiz-adv-x="527" 
d="M443 701q26 0 43 -15t17 -40q0 -11 -3.5 -20t-9.5 -19q-66 -109 -112.5 -189.5t-79 -145.5t-54 -122.5t-36.5 -121.5q-5 -17 -15.5 -24.5t-23.5 -7.5q-11 0 -19 4q-16 8 -19 23t2 32q16 60 39 118.5t55.5 124.5t77 144.5t104.5 179.5h-333q-17 0 -29.5 11t-12.5 28
q0 18 12.5 29t29.5 11h367z" />
    <glyph glyph-name="eight" unicode="8" horiz-adv-x="681" 
d="M341 631q-88 0 -126.5 -30.5t-38.5 -79.5q0 -56 44 -86.5t120 -30.5q78 0 120.5 32t42.5 87q0 48 -37.5 78t-124.5 30zM336 324q-88 0 -131.5 -35.5t-43.5 -93.5q0 -27 10 -50t31.5 -40t55.5 -26.5t81 -9.5q48 0 82.5 10t56.5 27.5t32.5 40t10.5 47.5q0 59 -48.5 94.5
t-136.5 35.5zM341 -10q-65 0 -114.5 15t-82.5 41.5t-49.5 63.5t-16.5 82q0 70 35 114t89 61q-44 17 -75.5 55.5t-31.5 97.5q0 90 63 140t181 50q120 0 183 -50.5t63 -135.5q0 -62 -29.5 -99.5t-75.5 -56.5q54 -17 88.5 -61t34.5 -114q0 -45 -16.5 -82.5t-49.5 -64t-82 -41.5
t-114 -15z" />
    <glyph glyph-name="nine" unicode="9" horiz-adv-x="663" 
d="M156 76q60 3 114.5 8.5t99 26t75.5 62t44 116.5q-35 -17 -80.5 -29t-97.5 -12q-54 0 -98 15.5t-75 45t-48 71t-17 93.5q0 50 16 93.5t47.5 75.5t78 50t107.5 18q70 0 118.5 -22t79.5 -63.5t45 -100.5t14 -133v-29q-4 -103 -32 -172t-80 -111.5t-129 -61.5t-179 -22
q-19 -1 -31 11t-12 29q0 15 10.5 27.5t29.5 13.5zM323 325q54 0 93 14.5t81 34.5v26q0 116 -39 173.5t-136 57.5q-86 0 -126.5 -44t-40.5 -113q0 -70 40 -109.5t128 -39.5z" />
    <glyph glyph-name="period" unicode="." horiz-adv-x="265" 
d="M107 129q17 0 29 -12.5t12 -29.5v-54q0 -17 -11.5 -29.5t-29.5 -12.5q-17 0 -29 12.5t-12 29.5v54q0 17 12 29.5t29 12.5z" />
    <glyph glyph-name="comma" unicode="," horiz-adv-x="214" 
d="M148 59q0 -38 -4 -66.5t-21 -58.5q-7 -12 -18 -20t-25 -8q-17 0 -27 11.5t-10 25.5q0 10 3.5 17l8 16t8 21.5t3.5 35.5v52q0 17 12 28.5t29 11.5t29 -11.5t12 -28.5v-26z" />
    <glyph glyph-name="hyphen" unicode="-" horiz-adv-x="339" 
d="M288 286q0 -17 -12.5 -28.5t-29.5 -11.5h-153q-17 0 -29.5 11.5t-12.5 28.5t12.5 29t29.5 12h153q17 0 29.5 -12t12.5 -29z" />
    <glyph glyph-name="colon" unicode=":" horiz-adv-x="277" 
d="M138 129q17 0 29 -12.5t12 -29.5v-54q0 -17 -11.5 -29.5t-29.5 -12.5q-17 0 -29 12.5t-12 29.5v54q0 17 12 29.5t29 12.5zM138 499q17 0 29 -12.5t12 -29.5v-54q0 -17 -11.5 -29.5t-29.5 -12.5q-17 0 -29 12.5t-12 29.5v54q0 17 12 29.5t29 12.5z" />
    <glyph glyph-name="underscore" unicode="_" horiz-adv-x="472" 
d="M472 -197h-472v75h472v-75z" />
    <glyph glyph-name="parenleft" unicode="(" horiz-adv-x="351" 
d="M159 309q0 -118 44 -226.5t131 -189.5q10 -10 12 -24t-6 -26q-9 -14 -26 -17.5t-32 9.5q-51 48 -89 103.5t-63.5 116t-38 125t-12.5 129.5t12.5 129t38 125t63.5 116.5t89 102.5q15 14 32 10.5t26 -17.5q8 -12 6 -26t-12 -24q-87 -81 -131 -189.5t-44 -226.5z" />
    <glyph glyph-name="parenright" unicode=")" horiz-adv-x="351" 
d="M192 309q0 118 -44 226.5t-131 189.5q-10 10 -12 24t6 26q9 14 26 17.5t32 -10.5q51 -47 89 -102.5t63.5 -116.5t38 -125t12.5 -129t-12.5 -129.5t-38 -125t-63.5 -116t-89 -103.5q-15 -13 -32 -9.5t-26 17.5q-8 12 -6 26t12 24q87 81 131 189.5t44 226.5z" />
    <glyph glyph-name="asterisk" unicode="*" horiz-adv-x="389" 
d="M195 704q14 0 24.5 -10t9.5 -28l-5 -84q25 16 39 25.5t21.5 14.5t10 7t3.5 2q13 9 27.5 6.5t21.5 -14.5q9 -16 2.5 -29t-17.5 -19l-83 -42l83 -41q11 -5 17.5 -18.5t-2.5 -29.5q-7 -12 -21 -14t-28 6l-75 47l6 -84q2 -18 -9 -28t-25 -10t-25 10t-9 28l6 84l-75 -47
q-14 -8 -28 -6t-21 14q-9 16 -2.5 29.5t17.5 18.5l83 41l-83 42q-11 6 -17.5 19t2.5 29q7 12 21.5 14.5t27.5 -6.5q1 0 3 -2t9.5 -7t22 -14.5t39.5 -25.5l-5 84q-1 18 9.5 28t24.5 10z" />
    <glyph glyph-name="slash" unicode="/" horiz-adv-x="349" 
d="M325 730q16 -6 22 -21.5t0 -31.5l-271 -684q-6 -16 -21.5 -22t-29.5 -1q-16 6 -22.5 21.5t0.5 31.5l271 683q6 16 21.5 22.5t29.5 1.5z" />
    <glyph glyph-name="quotesingle" unicode="'" horiz-adv-x="212" 
d="M145 525q0 -17 -11 -28t-28 -11t-28.5 11t-11.5 28v136q0 17 11.5 28.5t28.5 11.5t28 -11.5t11 -28.5v-136z" />
    <glyph glyph-name="quoteright" unicode="&#x2019;" horiz-adv-x="214" 
d="M161 624q0 -26 -6 -54.5t-21 -54.5q-14 -25 -39 -25q-17 0 -28 10.5t-11 25.5q0 9 4 17l9 18t9 24.5t4 36.5v44q0 17 11.5 28t28.5 11t28 -11t11 -28v-42z" />
    <glyph glyph-name="quoteleft" unicode="&#x2018;" horiz-adv-x="214" 
d="M138 525q0 -17 -11.5 -28t-28.5 -11t-28 11t-11 28v42q0 26 6 54.5t21 54.5q14 25 39 25q17 0 28 -10.5t11 -25.5q0 -9 -4 -17l-9 -18t-9 -24.5t-4 -36.5v-44z" />
    <glyph glyph-name="quotesinglbase" unicode="&#x201a;" horiz-adv-x="214" 
d="M148 38q0 -26 -6 -54.5t-22 -54.5q-14 -25 -39 -25q-16 0 -27 10.5t-11 25.5q0 9 4 17l9 18t9 24.5t4 36.5v43q0 17 11.5 28.5t27.5 11.5q17 0 28.5 -11.5t11.5 -28.5v-41z" />
    <glyph glyph-name="bracketleft" unicode="[" horiz-adv-x="361" 
d="M352 -135q0 -17 -12.5 -28.5t-29.5 -11.5h-157q-32 0 -48.5 18.5t-16.5 45.5v840q0 26 16.5 45t48.5 19h157q17 0 29.5 -11.5t12.5 -28.5t-12.5 -29t-29.5 -12h-140v-806h140q17 0 29.5 -12t12.5 -29z" />
    <glyph glyph-name="bracketright" unicode="]" horiz-adv-x="361" 
d="M9 -136q0 17 12.5 29t29.5 12h140v806h-140q-17 0 -29.5 12t-12.5 29t12.5 28.5t29.5 11.5h156q32 0 48.5 -18.5t16.5 -45.5v-840q0 -27 -16.5 -45.5t-48.5 -18.5h-156q-17 0 -29.5 11.5t-12.5 28.5z" />
    <glyph glyph-name="bar" unicode="|" horiz-adv-x="306" 
d="M150 835q17 0 29 -12.5t12 -29.5v-891q0 -18 -12 -30t-29 -12t-29 12.5t-12 29.5v891q0 17 12 29.5t29 12.5z" />
    <glyph glyph-name="exclam" unicode="!" horiz-adv-x="215" 
d="M67 659q0 17 12 29.5t29 12.5t28.5 -12.5t11.5 -29.5l-5 -396q0 -15 -10.5 -25.5t-25.5 -10.5q-14 0 -24.5 11t-10.5 25zM66 84q0 17 12.5 28.5t29.5 11.5t29 -11.5t12 -28.5v-53q0 -17 -12 -28.5t-29 -11.5t-29.5 12t-12.5 28v53z" />
    <glyph glyph-name="ampersand" unicode="&#x26;" horiz-adv-x="694" 
d="M503 238q2 34 16.5 52t47.5 18h78q17 0 29.5 -11.5t12.5 -28.5t-12 -29t-29 -12h-67q-4 -56 -25.5 -100t-57.5 -74t-83 -46t-102 -16q-64 0 -113 15t-82 41t-50 61.5t-17 77.5q0 63 31.5 106t100.5 69q-41 30 -65 66.5t-24 90.5q0 40 15.5 74t44 58.5t68.5 38.5t88 14
q51 0 91.5 -14t69 -38t43.5 -57t15 -71q0 -43 -13.5 -74.5t-41 -55.5t-70 -41t-99.5 -30q-50 -11 -82.5 -23.5t-52 -28.5t-27.5 -36.5t-8 -45.5q0 -53 45 -86t131 -33q45 0 80.5 13t60 35.5t38 53.5t15.5 67zM175 515q0 -25 9 -44t23 -33.5t31 -25t33 -19.5q51 10 84 20.5
t53 24.5t28 33.5t8 46.5q0 20 -7.5 39t-24 34t-42 24.5t-61.5 9.5q-68 0 -101 -32.5t-33 -77.5z" />
    <glyph glyph-name="question" unicode="?" horiz-adv-x="558" 
d="M131 561q-6 -8 -14.5 -13t-19.5 -5q-17 0 -28.5 12.5t-11.5 29.5q0 14 11 29q78 95 214 95q47 0 85.5 -14t66 -39.5t42.5 -60.5t15 -77q0 -49 -13 -85t-39.5 -64.5t-66.5 -53t-93 -49.5q-14 -7 -30 -7q-14 0 -26 10.5t-12 27.5q0 27 28 40q47 21 79.5 39.5t52.5 38.5
t29 44.5t9 56.5q0 51 -33 82.5t-94 31.5q-51 0 -86 -15.5t-65 -53.5zM211 84q0 17 12 28.5t29 11.5t29 -11.5t12 -28.5v-53q0 -17 -12 -28.5t-29 -11.5t-29 12t-12 28v53z" />
    <glyph glyph-name="numbersign" unicode="#" horiz-adv-x="642" 
d="M156 18q-8 -27 -33 -27q-23 0 -32 17t-2 37l52 162h-56q-17 0 -28 10.5t-11 26.5q0 17 11.5 27t28.5 10h81l48 151h-58q-17 0 -28.5 10.5t-11.5 26.5q0 17 11.5 27t28.5 10h83l58 176q9 26 33 26q23 0 32 -17t2 -37l-48 -148h106l58 176q9 26 34 26q22 0 31 -17t3 -37
l-49 -148h56q17 0 28.5 -10t11.5 -27q0 -16 -11.5 -26.5t-28.5 -10.5h-82l-48 -151h59q17 0 28.5 -10t11.5 -27q0 -16 -11.5 -26.5t-28.5 -10.5h-84l-61 -189q-9 -27 -34 -27q-22 0 -31.5 17t-2.5 37l52 162h-107zM243 281h107l48 151h-107z" />
    <glyph glyph-name="plus" unicode="+" horiz-adv-x="628" 
d="M275 311h-174q-17 0 -29 11t-12 28t12 28.5t29 11.5h174v174q0 17 11.5 29t28.5 12t28.5 -12t11.5 -29v-174h172q17 0 29 -11.5t12 -28.5t-12 -28t-29 -11h-172v-175q0 -17 -11.5 -29t-28.5 -12t-28.5 12t-11.5 29v175z" />
    <glyph glyph-name="copyright" unicode="&#xa9;" horiz-adv-x="806" 
d="M403 709q63 0 117.5 -22.5t96 -62.5t66 -95.5t26.5 -121.5q1 -24 1 -56t-1 -56q-2 -66 -26.5 -121.5t-66 -95.5t-96 -62t-117.5 -22t-118 22t-96 62t-65.5 95.5t-26.5 121.5q-1 24 -1 56t1 56q2 66 26.5 121.5t65.5 95.5t96 62.5t118 22.5zM403 649q-50 0 -93 -16
t-75.5 -46.5t-52.5 -74.5t-23 -100q-1 -12 -1.5 -28t-0.5 -33t0.5 -33t1.5 -28q3 -56 23 -99.5t52.5 -74t75.5 -46.5t93 -16q49 0 92 16t75.5 46.5t52.5 74t23 99.5q1 12 1 28v33v33t-1 28q-4 56 -24 100t-52 74.5t-75 46.5t-92 16zM404 201q34 0 59.5 17t37.5 44
q4 8 9.5 13.5t16.5 5.5t21 -7t10 -22q0 -7 -5 -19q-17 -41 -56 -66.5t-93 -25.5q-34 0 -63.5 12.5t-51.5 34.5t-36 52t-17 65q-5 46 0 95q3 34 16.5 63t36 51t52 34.5t63.5 12.5q54 0 93 -25.5t56 -65.5q5 -12 5 -19q0 -15 -10 -22t-21 -7t-16.5 5.5t-9.5 12.5
q-12 28 -37.5 44.5t-59.5 16.5q-45 0 -73 -29t-33 -76q-2 -23 -1.5 -44.5t1.5 -44.5q4 -46 32.5 -76t73.5 -30z" />
    <glyph glyph-name="percent" unicode="%" horiz-adv-x="748" 
d="M189 709q31 0 57.5 -11.5t46.5 -31.5t31.5 -47t13.5 -58q1 -25 0 -50q-2 -30 -14 -57t-31.5 -47.5t-46 -32t-57.5 -11.5t-57.5 11.5t-46.5 32t-32.5 47.5t-13.5 57q-2 26 0 50q1 31 13 58t32.5 47t47 31.5t57.5 11.5zM189 636q-32 0 -52.5 -22.5t-23.5 -55.5
q-2 -22 0 -44q2 -33 23 -55t53 -22t53 22t23 56q2 19 0 43q-2 33 -23 55.5t-53 22.5zM545 604q11 12 27 13t27 -9q12 -11 12.5 -26.5t-9.5 -27.5q-47 -54 -96.5 -111t-99.5 -114.5t-99.5 -115t-96.5 -111.5q-11 -11 -26.5 -12.5t-27.5 9.5q-11 10 -11.5 26t9.5 27zM560 336
q30 0 56.5 -11.5t46.5 -32t32 -47.5t14 -57q1 -25 0 -50q-2 -30 -14 -57t-32 -47.5t-46.5 -32t-56.5 -11.5q-31 0 -57.5 11.5t-47 32t-32.5 47.5t-14 57q-2 26 0 50q1 30 13.5 57t32.5 47.5t47 32t58 11.5zM559 263q-32 0 -52 -22.5t-23 -55.5q-2 -22 0 -44q2 -33 22.5 -55
t52.5 -22t53 22t23 55q2 20 0 44q-2 33 -23 55.5t-53 22.5z" />
    <glyph glyph-name="semicolon" unicode=";" horiz-adv-x="277" 
d="M195 63v-23q0 -19 -3.5 -42t-11.5 -43.5t-21 -34.5t-32 -14q-16 0 -25.5 11t-10.5 23q0 5 0.5 8.5t1.5 7.5q2 6 5.5 12t6.5 14.5t5.5 20.5t2.5 30v52q0 17 11.5 28.5t29.5 11.5q17 0 29 -11.5t12 -28.5v-22zM154 499q17 0 29 -12.5t12 -29.5v-54q0 -17 -11.5 -29.5
t-29.5 -12.5q-17 0 -29 12.5t-12 29.5v54q0 17 12 29.5t29 12.5z" />
    <glyph glyph-name="guillemotleft" unicode="&#xab;" horiz-adv-x="562" 
d="M48 351q0 21 10.5 38.5t33.5 36.5l121 96q14 11 29.5 9.5t26.5 -14.5t9 -29t-15 -27l-123 -96q-3 -2 -6 -5.5t-3 -8.5t3 -8.5t6 -5.5l123 -97q13 -10 15 -26.5t-9 -29.5t-26.5 -14t-29.5 10l-121 96q-23 20 -33.5 37.5t-10.5 37.5zM253 351q0 21 10.5 38.5t33.5 36.5
l120 96q14 11 30 9.5t26 -14.5q11 -13 9.5 -29t-14.5 -27l-123 -96q-3 -2 -6 -5.5t-3 -8.5t3 -8.5t6 -5.5l123 -97q13 -10 14.5 -26.5t-9.5 -29.5q-10 -13 -26 -14t-30 10l-120 96q-23 20 -33.5 37.5t-10.5 37.5z" />
    <glyph glyph-name="guillemotright" unicode="&#xbb;" horiz-adv-x="562" 
d="M514 351q0 -20 -10.5 -37.5t-33.5 -37.5l-121 -96q-14 -11 -29.5 -10t-26.5 14t-9 29.5t15 26.5l123 97q3 2 6 5.5t3 8.5t-3 8.5t-6 5.5l-123 96q-13 11 -15 27t9 29t26.5 14.5t29.5 -9.5l121 -96q23 -19 33.5 -36.5t10.5 -38.5zM309 351q0 -20 -10.5 -37.5t-33.5 -37.5
l-120 -96q-14 -11 -30 -10t-26 14q-11 13 -9.5 29.5t14.5 26.5l123 97q3 2 6 5.5t3 8.5t-3 8.5t-6 5.5l-123 96q-13 11 -14.5 27t9.5 29q10 13 26 14.5t30 -9.5l120 -96q23 -19 33.5 -36.5t10.5 -38.5z" />
    <glyph glyph-name="guilsinglleft" unicode="&#x2039;" horiz-adv-x="357" 
d="M48 351q0 21 10.5 38.5t33.5 36.5l121 96q14 11 29.5 9.5t26.5 -14.5t9 -29t-15 -27l-123 -96q-3 -2 -6 -5.5t-3 -8.5t3 -8.5t6 -5.5l123 -97q13 -10 15 -26.5t-9 -29.5t-26.5 -14t-29.5 10l-121 96q-23 20 -33.5 37.5t-10.5 37.5z" />
    <glyph glyph-name="guilsinglright" unicode="&#x203a;" horiz-adv-x="357" 
d="M309 351q0 -20 -10 -38t-34 -37l-120 -96q-14 -11 -29.5 -10t-26.5 14q-11 14 -9.5 30t14.5 26l123 97q3 2 6 5.5t3 8.5t-3 8.5t-6 5.5l-123 96q-13 11 -14.5 26.5t9.5 29.5q11 13 26.5 14.5t29.5 -9.5l120 -96q23 -19 33.5 -36.5t10.5 -38.5z" />
    <glyph glyph-name="greater" unicode="&#x3e;" horiz-adv-x="628" 
d="M145 642q11 13 27 14t30 -10l273 -221q23 -20 34 -37.5t11 -37.5t-11 -37.5t-34 -37.5l-273 -221q-14 -11 -30 -10t-27 14t-9 30t15 27l275 221q3 2 6 5.5t3 8.5t-3 8.5t-6 5.5l-275 221q-13 10 -15 27t9 30z" />
    <glyph glyph-name="less" unicode="&#x3c;" horiz-adv-x="628" 
d="M482 642q11 -13 9.5 -30t-14.5 -27l-275 -221q-3 -2 -6 -5.5t-3 -8.5t3 -8.5t6 -5.5l275 -221q13 -10 14.5 -27t-9.5 -30q-10 -13 -26.5 -14t-30.5 10l-272 221q-23 20 -34 37.5t-11 37.5t11 37.5t34 37.5l272 221q14 11 30 10t27 -14z" />
    <glyph glyph-name="equal" unicode="=" horiz-adv-x="628" 
d="M108 402q-17 0 -29 11t-12 28t12 28.5t29 11.5h412q17 0 29 -11.5t12 -28.5t-12 -28t-29 -11h-412zM108 221q-17 0 -29 11t-12 28t12 28.5t29 11.5h412q17 0 29 -11.5t12 -28.5t-12 -28t-29 -11h-412z" />
    <glyph glyph-name="endash" unicode="&#x2013;" horiz-adv-x="597" 
d="M53 286q0 17 12.5 29t29.5 12h407q17 0 29 -12t12 -29t-12 -28.5t-29 -11.5h-407q-17 0 -29.5 11.5t-12.5 28.5z" />
    <glyph glyph-name="at" unicode="@" horiz-adv-x="863" 
d="M472 141q20 6 33 -2.5t16 -22.5q3 -16 -5 -28t-23 -17q-14 -5 -30.5 -7.5t-31.5 -2.5q-38 0 -70 11.5t-56 33.5t-38.5 53.5t-15.5 72.5q-2 36 0 73q1 37 15.5 70t39 57.5t57.5 38.5t71 14q37 0 70.5 -14t58 -38.5t39 -57.5t14.5 -70v-118q0 -22 15.5 -38t36.5 -16
q22 0 37.5 16t15.5 38v161q0 65 -23 118t-62.5 90.5t-92 57.5t-110.5 20t-108 -20.5t-87.5 -56.5t-60.5 -85.5t-29 -107.5q-5 -51 -3.5 -104.5t4.5 -92.5q6 -64 31 -111t62.5 -78t84.5 -46.5t97 -15.5q64 0 118 22q11 5 25 3t22 -14q9 -12 5.5 -28t-18.5 -25
q-27 -14 -66 -23.5t-85 -9.5q-63 0 -123.5 19.5t-110 59.5t-82 101t-38.5 144q-2 19 -2.5 46t-0.5 55t0.5 54.5t1.5 46.5q5 73 34.5 135.5t77.5 108.5t112.5 72t138.5 26t140 -26t115.5 -73t78.5 -113t29 -146v-162q0 -27 -10 -50t-27 -40t-40 -27t-48 -10q-27 0 -50.5 10.5
t-41 27.5t-27 40t-9.5 49v113q0 23 -8.5 43t-23 34.5t-34.5 23t-43 8.5q-46 0 -76 -31.5t-32 -77.5q-1 -33 0 -65q1 -33 15 -55t35 -34t46.5 -14t49.5 7z" />
    <glyph glyph-name="dotlessi" unicode="&#x131;" horiz-adv-x="273" 
d="M136 526q17 0 29 -12.5t12 -29.5v-447q0 -17 -11.5 -29t-29.5 -12q-17 0 -28.5 12t-11.5 29v447q0 17 11.5 29.5t28.5 12.5z" />
    <glyph glyph-name="Ccedilla" unicode="&#xc7;" horiz-adv-x="662" 
d="M574 214q14 0 26.5 -11t12.5 -28q0 -8 -3 -18q-27 -69 -87 -112.5t-135 -52.5l-14 -37q40 -3 64 -27.5t24 -61.5q0 -25 -10.5 -44.5t-28 -34.5t-39.5 -26t-45 -19q-15 -5 -31 1.5t-16 28.5q0 8 4.5 17t20.5 14q48 19 62 32.5t14 28.5q0 9 -7.5 19.5t-23.5 10.5
q-11 0 -16 -2t-15 -2q-16 0 -25.5 13t-2.5 30l21 60q-54 5 -99 28t-78 59.5t-53 84.5t-24 104q-6 82 0 162q4 59 26.5 110t60 88.5t88 59t110.5 21.5q42 0 81.5 -12t73 -33.5t59.5 -52.5t41 -68q3 -11 3 -19q0 -17 -12.5 -27.5t-26.5 -10.5q-15 0 -24 7.5t-14 18.5
q-23 54 -71.5 86t-109.5 32q-44 0 -79.5 -15.5t-62 -42.5t-42 -64.5t-19.5 -81.5q-5 -77 0 -154q4 -44 19.5 -81.5t42 -64.5t62 -42.5t79.5 -15.5q61 0 109.5 32.5t71.5 86.5q5 11 14 18.5t24 7.5z" />
    <glyph glyph-name="ccedilla" unicode="&#xe7;" horiz-adv-x="557" 
d="M259 -6q-41 6 -74.5 23.5t-57.5 43.5t-38 60t-16 72q-1 15 -1.5 33.5t-0.5 37.5t0.5 37.5t1.5 33.5q3 44 20.5 80.5t47 62.5t69.5 40.5t87 14.5q52 0 90.5 -16.5t63.5 -40t37.5 -48.5t12.5 -42q0 -18 -11 -29.5t-27 -11.5q-12 0 -22 6t-17 21q-17 44 -52 64.5t-74 20.5
q-63 0 -101 -34.5t-43 -92.5q-1 -10 -1.5 -27t-0.5 -36t0.5 -37.5t1.5 -31.5q5 -56 41.5 -93.5t102.5 -37.5q39 0 74.5 20.5t53.5 64.5q7 15 16.5 21t22.5 6q16 0 27 -11.5t11 -29.5q0 -16 -11 -39.5t-33.5 -45.5t-56.5 -39.5t-80 -21.5l-14 -37q40 -3 64 -27.5t24 -61.5
q0 -25 -10.5 -44.5t-28 -34.5t-39.5 -26t-45 -19q-15 -5 -31 1.5t-16 28.5q0 8 4.5 17t20.5 14q48 19 62 32.5t14 28.5q0 9 -7.5 19.5t-23.5 10.5q-11 0 -16 -2t-15 -2q-16 0 -25.5 13t-2.5 30z" />
    <glyph glyph-name="Aring" unicode="&#xc5;" horiz-adv-x="675" 
d="M650 41q0 -16 -10 -29t-30 -13q-13 0 -23.5 7t-15.5 19l-74 209h-319l-74 -209q-5 -12 -15.5 -19t-23.5 -7q-20 0 -30 13t-10 29q0 9 2 14l208 580q14 39 41.5 57.5t61.5 18.5t61 -18.5t41 -57.5l208 -580q2 -4 2 -14zM206 312h263l-105 299q-7 20 -26 20t-26 -20z
M242 849q0 19 7.5 36.5t21 31t30.5 21t37 7.5t37.5 -7.5t30.5 -21t20.5 -31t7.5 -36.5q0 -40 -28 -68t-68 -28q-20 0 -37 7.5t-30.5 20.5t-21 30.5t-7.5 37.5zM294 849q0 -19 13 -32t31 -13q19 0 31.5 13t12.5 32q0 18 -12.5 31t-31.5 13q-18 0 -31 -13t-13 -31z" />
    <glyph glyph-name="Lslash" unicode="&#x141;" horiz-adv-x="565" 
d="M100 268l-43 -26q-14 -9 -30 -5.5t-24 17.5t-4.5 29.5t17.5 24.5l84 52v303q0 17 12 29.5t29 12.5t29 -12.5t12 -29.5v-253l95 59q14 9 29.5 5t24.5 -18q8 -14 4.5 -29.5t-17.5 -23.5l-136 -85v-239h327q17 0 29.5 -11t12.5 -28q0 -18 -12.5 -29t-29.5 -11h-343
q-32 0 -49 19t-17 46v203z" />
    <glyph glyph-name="lslash" unicode="&#x142;" horiz-adv-x="322" 
d="M162 710q17 0 29 -12t12 -29v-232l44 28q14 8 29 5.5t23 -15.5t4 -28.5t-16 -23.5l-84 -55v-310q0 -18 -11.5 -30t-29.5 -12q-17 0 -28.5 12t-11.5 30v258l-44 -28q-13 -8 -28 -4.5t-23 15.5q-8 14 -4.5 28.5t17.5 23.5l82 53v285q0 17 11.5 29t28.5 12z" />
    <glyph glyph-name="Aogonek" unicode="&#x104;" horiz-adv-x="701" 
d="M646 -122q11 0 21 -8.5t10 -21.5q0 -17 -14 -28t-35 -18.5t-47 -7.5q-23 0 -43 8t-35 22t-24 34.5t-9 45.5q0 38 21.5 70.5t75.5 62.5l-70 197h-319l-74 -209q-5 -12 -15.5 -19t-23.5 -7q-20 0 -30 13t-10 29q0 9 2 14l208 580q14 39 41.5 57.5t61.5 18.5t61 -18.5
t41 -57.5l206 -575q8 -19 1 -34t-24 -24q-47 -24 -66.5 -47.5t-19.5 -47.5q0 -25 15 -36.5t35 -11.5q23 0 38 12q10 7 21 7zM206 312h263l-105 299q-7 20 -26 20t-26 -20z" />
    <glyph glyph-name="aogonek" unicode="&#x105;" horiz-adv-x="562" 
d="M454 34q-44 -20 -73.5 -50.5t-29.5 -73.5q0 -26 15.5 -39t35.5 -13t40 14q11 8 23 6.5t20 -12.5t5.5 -24.5t-13.5 -21.5q-14 -11 -34.5 -18.5t-47.5 -7.5q-23 0 -43 8t-35 22t-24 34.5t-9 45.5q0 28 8 49t21 41q-26 -3 -53 -3q-99 0 -149.5 47.5t-50.5 122.5
q0 33 12.5 62.5t37.5 51.5t62.5 35t88.5 13q36 0 68 -5t71 -16v41q0 61 -30 88t-94 27q-35 0 -66 -9t-53 -17q-26 -10 -42 1t-16 30q0 11 6 21t20 17q12 6 30 11.5t39 10t44.5 7.5t45.5 3q45 0 81 -11t62 -33.5t40 -58t14 -84.5v-276q0 -11 -5.5 -20t-21.5 -16zM141 163
q0 -48 31.5 -73.5t96.5 -25.5q60 0 92.5 12.5t38.5 16.5v139q-38 10 -69 16t-69 6q-51 0 -86 -23.5t-35 -67.5z" />
    <glyph glyph-name="Oslash" unicode="&#xd8;" horiz-adv-x="730" 
d="M364 -10q-83 0 -151 40l-13 -22q-8 -14 -22.5 -17t-27.5 5t-16 23t5 28l17 28q-37 38 -59 87t-26 107q-6 82 0 162q4 59 28 110t63 88.5t90.5 59t111.5 21.5q42 0 79.5 -10.5t69.5 -29.5l14 22q8 14 22.5 17t27.5 -5t15.5 -22.5t-5.5 -28.5l-16 -27q38 -38 61 -88
t28 -107q6 -80 0 -162q-4 -59 -28 -110t-63.5 -88.5t-92 -59t-112.5 -21.5zM364 69q44 0 81.5 15.5t65.5 42.5t45 64.5t21 81.5q8 77 0 155q-3 37 -16 68.5t-34 57.5l-272 -455q23 -14 50.5 -22t58.5 -8zM153 273q3 -36 15 -67.5t32 -57.5l273 454q-24 14 -51.5 21.5
t-57.5 7.5q-43 0 -80 -15.5t-64.5 -42.5t-45 -64t-21.5 -81q-6 -78 0 -155z" />
    <glyph glyph-name="oslash" unicode="&#xf8;" horiz-adv-x="593" 
d="M296 533q42 0 78.5 -12t65.5 -34l23 26q11 13 26.5 14t26.5 -9q12 -10 13 -26t-9 -28l-30 -34q12 -21 19.5 -45t9.5 -50q2 -31 2 -71.5t-2 -70.5q-3 -44 -20.5 -81t-47 -64t-69.5 -42t-86 -15q-42 0 -78.5 12t-65.5 35l-23 -27q-10 -12 -26 -13.5t-28 9.5
q-11 10 -11.5 26t9.5 27l30 34q-27 43 -30 99q-1 15 -1.5 33.5t-0.5 37.5t0.5 37.5t1.5 33.5q3 44 20.5 80.5t47.5 62.5t69.5 40.5t85.5 14.5zM296 457q-63 0 -100.5 -36t-41.5 -92q-1 -13 -1.5 -30.5t-0.5 -35.5t0.5 -35t1.5 -30q2 -21 7 -36l228 265q-38 30 -93 30z
M438 329q-2 16 -6 33l-229 -265q38 -30 93 -30q61 0 99 36t43 95q1 13 1 30v35v35.5t-1 30.5z" />
    <glyph glyph-name="AE" unicode="&#xc6;" horiz-adv-x="1043" 
d="M59 -4q-19 0 -30 12.5t-11 29.5q0 12 6 21l394 585q23 35 52 46t65 11h397q17 0 29.5 -11.5t12.5 -28.5t-12.5 -28t-29.5 -11h-332v-230h324q17 0 28.5 -11t11.5 -28q0 -16 -12 -27.5t-28 -11.5h-324v-235h334q17 0 29.5 -11t12.5 -28t-12.5 -28.5t-29.5 -11.5h-346
q-34 0 -52 20t-18 48v174h-271l-153 -228q-12 -18 -35 -18zM299 320h219v301q-8 0 -16 -4.5t-16 -17.5z" />
    <glyph glyph-name="ae" unicode="&#xe6;" horiz-adv-x="901" 
d="M838 286q0 -26 -14 -42t-45 -16h-299v-16q0 -71 40.5 -109t107.5 -38q26 0 58 7t65 19q13 5 24 4t18.5 -6t11.5 -13t4 -17q0 -10 -4.5 -19t-17.5 -17q-12 -7 -30 -13t-39.5 -10t-44.5 -6.5t-45 -2.5q-54 0 -94.5 16.5t-69.5 45.5q-12 -9 -32.5 -20t-47 -20t-58.5 -15.5
t-66 -6.5q-99 0 -149.5 47.5t-50.5 123.5q0 33 12.5 62t37.5 51t62.5 35t88.5 13q36 0 68 -5t71 -16v41q0 61 -30 88t-94 27q-32 0 -64 -9t-55 -17q-26 -10 -42 1t-16 30q0 11 6 21t20 17q25 12 69.5 22t89.5 10q58 0 100.5 -19.5t66.5 -57.5q29 37 73.5 57t98.5 20
q49 0 89 -16t68 -45t43 -68.5t15 -87.5v-30zM269 64q47 0 85 16.5t67 36.5q-11 25 -16.5 54t-4.5 61q-39 10 -69.5 16t-68.5 6q-51 0 -86 -23.5t-35 -67.5q0 -48 31.5 -73.5t96.5 -25.5zM746 296q11 0 13 12q2 34 -7 62t-27 48t-44 31t-58 11q-73 0 -109 -44.5t-34 -119.5
h266z" />
    <glyph glyph-name="OE" unicode="&#x152;" horiz-adv-x="1069" 
d="M582 0q-30 0 -77 -5t-119 -5q-75 0 -132.5 22.5t-97.5 62t-62 94t-25 118.5q-2 29 -2 60t2 60q3 64 25.5 119t62.5 96t97.5 64.5t132.5 23.5q36 0 65.5 -1.5t55.5 -3t50 -3t48 -1.5h352q17 0 29.5 -11.5t12.5 -28.5t-12.5 -28t-29.5 -11h-337v-230h329q17 0 28.5 -11
t11.5 -28q0 -16 -12 -27t-28 -11h-329v-236h339q17 0 29.5 -11t12.5 -28t-12.5 -28.5t-29.5 -11.5h-378zM540 290v333q-43 5 -77.5 6.5t-75.5 1.5q-57 0 -100.5 -17t-72.5 -47.5t-44.5 -72t-18.5 -90.5q-2 -26 -2 -56.5t2 -57.5q3 -49 18.5 -89.5t44.5 -70t72.5 -45.5
t100.5 -16q41 0 75 1.5t78 7.5v212z" />
    <glyph glyph-name="oe" unicode="&#x153;" horiz-adv-x="940" 
d="M875 286q0 -26 -14 -42t-44 -16h-300v-16q0 -36 11 -63t31 -46t47.5 -28.5t60.5 -9.5q27 0 57 7t63 19q13 5 24 4t19 -6t12 -13t4 -17q0 -10 -4.5 -19t-17.5 -17q-12 -8 -30.5 -13.5t-39.5 -10t-43.5 -6.5t-43.5 -2q-66 0 -113 24t-75 67q-29 -42 -76 -66.5t-107 -24.5
q-47 0 -86.5 15t-69 42t-47 64t-20.5 81q-1 15 -1.5 33.5t-0.5 37.5t0.5 37.5t1.5 33.5q3 44 20.5 80.5t47.5 62.5t69.5 40.5t85.5 14.5q60 0 108 -24.5t77 -66.5q29 44 75.5 67.5t106.5 23.5q48 0 87.5 -16t67 -45t42.5 -68.5t15 -87.5v-30zM661 460q-74 0 -110 -44.5
t-34 -119.5h266q11 0 13 12q2 34 -6.5 62t-26.5 48t-44 31t-58 11zM296 457q-63 0 -100.5 -36t-41.5 -92q-1 -13 -1.5 -30.5t-0.5 -35.5t0.5 -35t1.5 -30q5 -59 43 -95t99 -36t99 36t43 95q1 13 1 30v35v35.5t-1 30.5q-4 56 -41.5 92t-100.5 36z" />
    <glyph glyph-name="Dcroat" unicode="&#x110;" horiz-adv-x="718" 
d="M169 0q-34 0 -51.5 20t-17.5 48v241h-65q-17 0 -27.5 11t-10.5 28q0 16 10.5 27t27.5 11h65v247q0 29 17.5 48.5t51.5 19.5h166q76 0 133.5 -22t96.5 -61.5t60 -94t24 -118.5q3 -55 0 -109q-3 -64 -24 -118.5t-60 -94t-96.5 -61.5t-133.5 -22h-166zM335 79q58 0 100.5 16
t71 44.5t43.5 69t18 89.5q3 52 0 105q-3 49 -18 89.5t-43.5 69t-71 44.5t-100.5 16h-153v-236h157q17 0 28 -11t11 -27q0 -17 -11 -28t-28 -11h-157v-230h153z" />
    <glyph glyph-name="dcroat" unicode="&#x111;" horiz-adv-x="602" 
d="M74 334q8 94 61 146.5t149 52.5q41 0 79 -10t65 -22v77h-97q-17 0 -28 10.5t-11 27.5q0 16 11 26.5t28 10.5h97v18q0 15 11.5 27t28.5 12q19 0 30 -12t11 -27v-18h22q16 0 27.5 -10t11.5 -27t-12 -27.5t-27 -10.5h-22v-494q0 -11 -3 -18t-14 -15q-9 -6 -28 -16.5t-45 -20
t-58 -16.5t-66 -7q-100 0 -156.5 54.5t-64.5 147.5q-1 13 -1.5 31.5t-0.5 38.5t0.5 38.5t1.5 32.5zM155 199q12 -132 141 -132q18 0 38 4t38 10t33 13.5t23 13.5v314q-18 11 -57 23t-84 12q-66 0 -96.5 -32.5t-35.5 -95.5q-1 -11 -1.5 -28t-0.5 -35t0.5 -36t1.5 -31z" />
    <glyph glyph-name="Eth" unicode="&#xd0;" horiz-adv-x="719" 
d="M169 0q-33 0 -51 20t-18 48v241h-64q-17 0 -28 11t-11 28q0 16 11 27t28 11h64v247q0 29 18 48.5t51 19.5h167q76 0 133 -22t96 -61.5t60 -94t25 -118.5q2 -27 2 -55.5t-2 -53.5q-4 -64 -25 -118t-60 -93.5t-96 -62t-133 -22.5h-167zM568 298q2 25 2 53.5t-2 50.5
q-3 49 -17.5 90t-43 69.5t-71 44.5t-100.5 16h-154v-236h158q17 0 28 -11t11 -27q0 -17 -11 -28t-28 -11h-158v-230h154q58 0 100 16t70.5 44.5t43.5 69t18 89.5z" />
    <glyph glyph-name="eth" unicode="&#xf0;" horiz-adv-x="596" 
d="M323 633l-23 13q-19 10 -21.5 27t5.5 30q8 12 23 16t29 -4q20 -11 37 -22t31 -24l57 26q13 6 27.5 1.5t20.5 -19.5q6 -14 0.5 -27.5t-18.5 -19.5l-35 -16q29 -42 41 -93t12 -115l-1 -203q0 -48 -17 -87t-46.5 -66.5t-69 -43t-85.5 -15.5q-45 0 -83.5 15t-67 41t-46 62.5
t-20.5 78.5q-3 59 0 119q3 43 20 78.5t45.5 61t67 39.5t83.5 14q43 0 78 -14t62 -40q0 39 -9 72.5t-35 63.5l-71 -32q-14 -7 -29 -2t-20 18q-6 14 -0.5 28t19.5 21zM290 422q-60 0 -95 -34t-39 -87q-2 -26 -2 -54.5t2 -53.5q5 -55 41 -89.5t93 -34.5q58 0 94 34.5t41 89.5
q2 25 2 53.5t-2 54.5q-4 53 -39.5 87t-95.5 34z" />
    <glyph glyph-name="Thorn" unicode="&#xde;" horiz-adv-x="644" 
d="M182 131v-93q0 -17 -11.5 -29.5t-29.5 -12.5q-17 0 -29 12.5t-12 29.5v629q0 17 12 29.5t29 12.5t29 -12.5t12 -29.5v-97h188q46 0 87.5 -14.5t72.5 -42.5t49 -69t18 -93q0 -53 -17.5 -93.5t-49 -69t-74.5 -43t-94 -14.5h-180zM361 210q82 0 117 39.5t35 101.5
q0 63 -36 102t-111 39h-184v-282h179z" />
    <glyph glyph-name="thorn" unicode="&#xfe;" horiz-adv-x="601" 
d="M527 190q-8 -94 -63.5 -146.5t-155.5 -52.5q-38 0 -73.5 10t-61.5 22v-175q0 -17 -11.5 -29.5t-29.5 -12.5q-17 0 -28.5 12.5t-11.5 29.5v821q0 17 11.5 29t28.5 12t29 -12t12 -29v-167q26 11 63 21t78 10q97 0 151 -52.5t62 -146.5q1 -14 1.5 -32.5t0.5 -38.5
t-0.5 -39.5t-1.5 -33.5zM445 325q-11 132 -136 132q-19 0 -39 -4t-39 -10t-34 -13.5t-24 -13.5v-312q8 -5 22 -11.5t31.5 -12t37.5 -9.5t41 -4q69 0 102.5 32.5t37.5 94.5q1 11 1.5 28t0.5 36t-0.5 36.5t-1.5 30.5z" />
    <glyph glyph-name="yen" unicode="&#xa5;" horiz-adv-x="647" 
d="M26 636q-11 14 -10 31t15 28q13 11 30.5 9.5t28.5 -15.5l233 -292l234 292q11 14 28 15.5t31 -9.5q13 -11 14.5 -27.5t-9.5 -30.5l-230 -282q-12 -15 -19.5 -25.5t-7.5 -31.5v-4h120q16 0 27.5 -10.5t11.5 -27.5t-11.5 -27.5t-27.5 -10.5h-120v-180q0 -17 -11.5 -29.5
t-29.5 -12.5q-17 0 -29 12.5t-12 29.5v180h-119q-17 0 -28.5 10.5t-11.5 27.5t11.5 27.5t28.5 10.5h119v4q0 21 -7.5 32t-19.5 26z" />
    <glyph glyph-name="Iogonek" unicode="&#x12e;" horiz-adv-x="283" 
d="M100 663q0 17 12 29.5t29 12.5q18 0 29.5 -12.5t11.5 -29.5v-621q0 -12 -4.5 -23.5t-17.5 -17.5q-45 -22 -62.5 -46.5t-17.5 -47.5q0 -25 15 -36.5t35 -11.5q11 0 20 3.5t18 9.5q10 8 22.5 6.5t20.5 -12.5q10 -13 6 -25.5t-17.5 -23t-34 -17t-42.5 -6.5q-23 0 -43 8
t-35 22t-23.5 34.5t-8.5 45.5q0 37 22 70.5t65 58.5v630z" />
    <glyph glyph-name="iogonek" unicode="&#x12f;" horiz-adv-x="273" 
d="M96 484q0 18 11.5 30t28.5 12t29 -12t12 -29v-444q0 -16 -6 -25.5t-15 -14.5q-44 -23 -60 -47t-16 -47q0 -25 15 -36.5t34 -11.5q20 0 38 13q11 8 23.5 6.5t20.5 -12.5q9 -13 5 -25.5t-17.5 -23t-34 -17t-42.5 -6.5q-23 0 -42.5 8t-34.5 22t-23.5 34.5t-8.5 45.5
q0 37 20.5 70.5t62.5 59.5v450zM186 657q0 -20 -14.5 -35.5t-35.5 -15.5t-35 15.5t-14 35.5q0 21 14 35.5t35 14.5t35.5 -14.5t14.5 -35.5z" />
    <glyph glyph-name="dollar" unicode="$" 
d="M547 203q0 -40 -15.5 -73.5t-43 -58t-65 -39t-82.5 -16.5v-66q0 -17 -10.5 -28t-26.5 -11q-14 0 -25.5 11.5t-11.5 27.5v68q-57 5 -102 24t-78 43q-22 16 -22 37q0 17 12.5 29t29.5 12q14 0 29 -12q32 -24 79 -41t98 -17q71 0 111 27.5t40 82.5q0 22 -8 39t-28.5 30
t-55.5 24t-88 23q-55 12 -95 27.5t-65.5 37.5t-38 51.5t-12.5 67.5t14 69.5t39.5 55t61 38t79.5 18.5v65q0 17 11.5 28t25.5 11q16 0 26.5 -11t10.5 -28v-65q45 -6 82 -20t61 -34q15 -12 15 -33q0 -16 -12 -27t-29 -11q-8 0 -14.5 3.5t-13.5 7.5q-32 20 -65.5 29t-66.5 9
q-42 0 -69.5 -9.5t-43.5 -24t-22.5 -32.5t-6.5 -36q0 -28 10 -45.5t28.5 -29.5t46 -20t62.5 -15q63 -13 109 -29.5t76 -39t44.5 -53t14.5 -71.5z" />
    <glyph glyph-name="quotedblleft" unicode="&#x201c;" horiz-adv-x="356" 
d="M61 567q0 26 6 54.5t22 54.5q12 25 38 25q17 0 28 -10.5t11 -25.5q0 -9 -4 -17l-9 -18t-9 -24.5t-4 -36.5v-44q0 -17 -11.5 -28t-28.5 -11t-28 11t-11 28v42zM199 567q0 26 6 54.5t21 54.5q14 25 39 25q17 0 28 -10.5t11 -25.5q0 -9 -4 -17l-9 -18t-9 -24.5t-4 -36.5v-44
q0 -17 -11.5 -28t-28.5 -11t-28 11t-11 28v42z" />
    <glyph glyph-name="quotedblright" unicode="&#x201d;" horiz-adv-x="356" 
d="M163 624q0 -26 -6 -54.5t-21 -54.5q-14 -25 -39 -25q-17 0 -28 10.5t-11 25.5q0 9 4 17l9 18t9 24.5t4 36.5v44q0 17 11.5 28t28.5 11t28 -11t11 -28v-42zM301 624q0 -26 -6 -54.5t-21 -54.5q-14 -25 -39 -25q-17 0 -28 10.5t-11 25.5q0 9 4 17l9 18t9 24.5t4 36.5v44
q0 17 11.5 28t28.5 11t28 -11t11 -28v-42z" />
    <glyph glyph-name="quotedblbase" unicode="&#x201e;" horiz-adv-x="356" 
d="M301 38q0 -26 -6 -54.5t-21 -54.5q-14 -25 -39 -25q-17 0 -28 10.5t-11 25.5q0 9 4 17l9 18t9 24.5t4 36.5v43q0 17 11.5 28.5t28.5 11.5t28 -11.5t11 -28.5v-41zM163 38q0 -26 -6 -54.5t-21 -54.5q-14 -25 -39 -25q-17 0 -28 10.5t-11 25.5q0 9 4 17l9 18t9 24.5t4 36.5
v43q0 17 11.5 28.5t28.5 11.5t28 -11.5t11 -28.5v-41z" />
    <glyph glyph-name="germandbls" unicode="&#xdf;" horiz-adv-x="663" 
d="M495 563q0 -35 -13 -58t-28.5 -41.5t-28.5 -35.5t-13 -39q0 -26 18.5 -40.5t62.5 -30.5q71 -26 102.5 -64.5t31.5 -94.5q0 -36 -14.5 -67t-40.5 -53.5t-62.5 -35t-80.5 -12.5q-42 0 -80.5 13.5t-75.5 42.5q-13 11 -15 27.5t6 28.5q9 13 25 15.5t32 -8.5q12 -9 23 -17
t23.5 -14t28 -9.5t36.5 -3.5q51 0 82.5 24t31.5 73q0 36 -22.5 55t-71.5 36q-65 22 -93.5 51t-28.5 81q0 32 13.5 53.5t29 39t29 34.5t13.5 41q0 36 -26.5 58t-79.5 22q-65 0 -100.5 -32.5t-35.5 -102.5v-461q0 -18 -11.5 -30t-29.5 -12q-17 0 -28.5 12t-11.5 30v466
q0 98 56 151t161 53q41 0 75.5 -10.5t59 -29.5t38 -46t13.5 -59z" />
    <glyph glyph-name="emdash" unicode="&#x2014;" horiz-adv-x="961" 
d="M53 286q0 17 12.5 29t29.5 12h771q17 0 29 -12t12 -29t-12 -28.5t-29 -11.5h-771q-17 0 -29.5 11.5t-12.5 28.5z" />
    <glyph glyph-name="ellipsis" unicode="&#x2026;" horiz-adv-x="642" 
d="M535 129q17 0 29 -12.5t12 -29.5v-54q0 -17 -11.5 -29.5t-29.5 -12.5q-17 0 -29 12.5t-12 29.5v54q0 17 12 29.5t29 12.5zM322 129q17 0 29 -12.5t12 -29.5v-54q0 -17 -11.5 -29.5t-29.5 -12.5q-17 0 -29 12.5t-12 29.5v54q0 17 12 29.5t29 12.5zM107 129q17 0 29 -12.5
t12 -29.5v-54q0 -17 -11.5 -29.5t-29.5 -12.5q-17 0 -29 12.5t-12 29.5v54q0 17 12 29.5t29 12.5z" />
    <glyph glyph-name="bullet" unicode="&#x2022;" horiz-adv-x="472" 
d="M110 350q0 26 10 49t27 40t40 27t49 10t49 -10t40 -27t27 -40t10 -49t-10 -49t-27 -40t-40 -27t-49 -10t-49 10t-40 27t-27 40t-10 49z" />
    <glyph glyph-name="asciicircum" unicode="^" horiz-adv-x="611" 
d="M305 622q-8 0 -12 -10l-92 -245q-5 -16 -21 -22.5t-31 -0.5q-16 6 -22.5 22t-0.5 30l92 238q28 71 87 71t88 -71l92 -238q6 -14 -1 -30t-22 -22q-16 -6 -31.5 0.5t-21.5 22.5l-91 245q-4 10 -13 10z" />
    <glyph glyph-name="degree" unicode="&#xb0;" horiz-adv-x="349" 
d="M50 587q0 26 10 48.5t26.5 39.5t39 27t48.5 10q25 0 48 -10t40 -27t27 -39.5t10 -48.5t-10 -48.5t-27 -39t-40 -26.5t-48 -10q-26 0 -48.5 10t-39 26.5t-26.5 39t-10 48.5zM105 587q0 -29 20 -48.5t49 -19.5t49 19.5t20 48.5t-20 49t-49 20t-49 -20t-20 -49z" />
    <glyph glyph-name="Euro" unicode="&#x20ac;" horiz-adv-x="650" 
d="M135 448q5 56 24 104t52 83t79 54.5t105 19.5q63 0 115.5 -20t88.5 -58q8 -8 10 -14.5t2 -13.5q0 -17 -11 -28t-28 -11t-34 17q-15 14 -30 24t-31.5 16t-36.5 8.5t-45 2.5q-82 0 -125.5 -51t-51.5 -133h183q16 0 27.5 -10.5t11.5 -26.5t-11.5 -26t-27.5 -10h-187v-49h187
q16 0 27.5 -10t11.5 -27q0 -16 -11.5 -26t-27.5 -10h-183q4 -41 16.5 -75t34.5 -58.5t53.5 -38t72.5 -13.5q25 0 45 3t36.5 9t31.5 15.5t30 23.5q8 8 16 13t18 5q17 0 28 -11.5t11 -27.5q0 -8 -2 -14.5t-10 -14.5q-37 -39 -89 -58.5t-115 -19.5q-59 0 -105 19.5t-78.5 54.5
t-52 83t-24.5 105h-48q-16 0 -27 10t-11 26q0 17 11 27t27 10h46v49h-46q-16 0 -27 10t-11 26t11 26.5t27 10.5h48z" />
    <glyph glyph-name="periodcentered" unicode="&#xb7;" horiz-adv-x="265" 
d="M132 422q17 0 29 -12.5t12 -29.5v-54q0 -17 -11.5 -29.5t-29.5 -12.5q-17 0 -29 12.5t-12 29.5v54q0 17 12 29.5t29 12.5z" />
    <glyph glyph-name="registered" unicode="&#xae;" horiz-adv-x="616" 
d="M315 455q27 0 37.5 12t10.5 30q0 20 -11 31.5t-35 11.5h-61v-85h59zM486 404q2 18 2 40.5t-2 39.5q-7 84 -56.5 131.5t-123.5 47.5q-75 0 -124 -47.5t-56 -131.5q-2 -17 -2 -39.5t2 -40.5q7 -83 56 -130.5t124 -47.5q74 0 123.5 47.5t56.5 130.5zM309 403q-6 9 -17 9h-36
v-79q0 -11 -6.5 -17.5t-17.5 -6.5q-8 0 -15 6.5t-7 17.5v218q0 14 8 23t24 9h79q37 0 63.5 -21.5t26.5 -63.5q0 -32 -15.5 -50.5t-40.5 -26.5l59 -74q6 -6 6 -16t-7 -16.5t-18 -6.5q-8 0 -17 9zM532 408q-2 -49 -20 -91t-48.5 -72.5t-71 -48t-86.5 -17.5q-47 0 -87.5 17.5
t-71 48t-48.5 72.5t-20 91q-2 36 0 73q2 49 20 90.5t48.5 72t71 48t87.5 17.5q46 0 86.5 -17.5t71 -48t48.5 -72t20 -90.5q2 -37 0 -73z" />
    <glyph glyph-name="questiondown" unicode="&#xbf;" horiz-adv-x="558" 
d="M418.008 139.034q6 8 14.499 12.999q8.5 5 19.499 5q16.999 0 28.498 -12.499q11.5 -12.499 11.5 -29.498q0 -14 -11 -28.999q-77.9951 -94.9941 -213.986 -94.9941q-46.9971 0 -85.4951 13.999q-38.498 14 -65.9961 39.498t-42.4971 60.4961t-14.999 76.9951
q0 48.9971 12.999 84.9951t39.4971 64.4961q26.499 28.498 66.4961 52.9971q39.998 24.498 92.9941 49.4971q14 6.99902 29.999 6.99902q13.999 0 25.998 -10.499t11.999 -27.498q0 -26.999 -27.998 -39.998q-46.9971 -20.999 -79.4951 -39.4971
q-32.498 -18.499 -52.4971 -38.498t-28.998 -44.4971q-8.99902 -24.499 -8.99902 -56.4971q0 -50.9971 32.998 -82.4951q32.9971 -31.498 93.9941 -31.498q50.9961 0 85.9941 15.499t64.9961 53.4971zM338.013 616.005q0 -16.999 -11.999 -28.498t-28.998 -11.499
t-28.998 11.499q-12 11.499 -12 28.498v52.9971q0 16.999 12 28.498q11.999 11.499 28.998 11.499t28.998 -11.999t11.999 -27.998v-52.9971z" />
    <glyph glyph-name="asciitilde" unicode="~" horiz-adv-x="633" 
d="M499 395q15 8 27 7t20 -7t12.5 -15.5t4.5 -17.5q0 -16 -9 -26.5t-23 -15.5q-32 -14 -61.5 -22.5t-56.5 -8.5q-29 0 -52.5 8t-46.5 18t-46.5 18t-51.5 8q-19 0 -38.5 -6.5t-43.5 -18.5q-15 -8 -27 -7t-20.5 7t-13 15t-4.5 18q0 16 9 26.5t23 15.5q34 14 62.5 22.5
t54.5 8.5q28 0 52 -8t47 -18t46.5 -18t51.5 -8q20 0 40 6.5t44 18.5z" />
    <glyph glyph-name="sterling" unicode="&#xa3;" horiz-adv-x="565" 
d="M53 288q-17 0 -29 11.5t-12 29.5q0 17 12 27.5t29 10.5h52q-8 36 -15.5 71t-7.5 66q0 42 13.5 79.5t40.5 65.5t67.5 44.5t93.5 16.5q36 0 65.5 -7.5t53.5 -18.5t42 -25.5t32 -27.5q10 -10 13.5 -18.5t3.5 -16.5q0 -17 -11 -28.5t-28 -11.5t-36 16q-29 27 -59.5 43
t-77.5 16q-37 0 -62 -11.5t-40.5 -30t-22.5 -40.5t-7 -43q0 -29 8 -63.5t16 -75.5h148q17 0 29.5 -10.5t12.5 -27.5t-12.5 -29t-29.5 -12h-138q5 -45 -9 -101.5t-42 -107.5h341q17 0 29.5 -11.5t12.5 -28.5t-12.5 -28t-29.5 -11h-370q-29 0 -45 15.5t-16 38.5q0 12 4.5 23
t12.5 28q23 46 35 91t7 92h-62z" />
    <glyph glyph-name="exclamdown" unicode="&#xa1;" horiz-adv-x="215" 
d="M67 41.04q0 -16.999 12 -29.498t29 -12.499t28.5 12.499t11.5 29.498l-5 395.976q0 15 -10.5 25.499t-25.5 10.499q-14 0 -24.5 -10.999t-10.5 -24.999zM66 616.005q0 -16.999 12.5 -28.498t29.5 -11.499t29 11.499t12 28.498v52.9971q0 16.999 -12 28.498t-29 11.499
t-29.5 -11.999t-12.5 -27.998v-52.9971z" />
    <glyph glyph-name="Eogonek" unicode="&#x118;" horiz-adv-x="632" 
d="M170 0q-34 0 -52 20t-18 48v565q0 29 18 48.5t52 19.5h345q17 0 29 -11.5t12 -28.5t-12.5 -28t-28.5 -11h-333v-230h324q17 0 28.5 -11t11.5 -28q0 -16 -12 -27t-28 -11h-324v-236h335q16 0 28.5 -11t12.5 -28q0 -16 -8 -24.5t-20 -12.5q-44 -14 -73.5 -41t-29.5 -57
q0 -24 14 -35t33 -11q23 0 41 13q11 8 23.5 6.5t20.5 -12.5t5.5 -24.5t-13.5 -21.5q-14 -11 -35 -18.5t-48 -7.5q-45 0 -76 29t-31 76q0 30 14.5 55.5t44.5 45.5h-250z" />
    <glyph glyph-name="eogonek" unicode="&#x119;" horiz-adv-x="573" 
d="M510 286q0 -26 -14 -42t-45 -16h-299v-16q0 -71 41 -109t108 -38q28 0 58.5 7t63.5 19q13 5 24 4t18.5 -6t11.5 -13t4 -17t-4.5 -19.5t-21.5 -18.5q-47 -23 -79.5 -50.5t-32.5 -64.5q0 -24 14.5 -35.5t33.5 -11.5t39 13q11 8 23 6.5t20 -12.5q10 -13 6 -25.5t-17.5 -23
t-34 -17t-44.5 -6.5q-22 0 -42 7.5t-35 21.5t-23.5 33t-8.5 43q0 26 11.5 49t32.5 44q-55 -4 -99 10t-75.5 42.5t-49.5 70t-21 92.5q-2 28 -1.5 62t2.5 58q4 48 22 86t47 65t68 41t85 14q49 0 88.5 -16t67.5 -44.5t43 -68.5t15 -87v-31zM418 296q11 0 13 12q2 34 -6.5 62
t-26.5 48t-44 31t-58 11q-74 0 -110 -44.5t-34 -119.5h266z" />
    <glyph glyph-name="trademark" unicode="&#x2122;" horiz-adv-x="635" 
d="M185 461q0 -10 -7 -15.5t-15 -5.5q-10 0 -15.5 6t-5.5 15v186h-65q-9 0 -15.5 6t-6.5 15q0 10 6.5 16t15.5 6h172q8 0 14 -6t6 -16q0 -9 -6 -15t-14 -6h-64v-186zM339 693q28 0 36 -29l44 -173l45 173q3 13 13 21t23 8q30 0 36 -34l34 -192q2 -10 -2 -18t-14 -10
q-11 -2 -18 3.5t-9 15.5l-29 182l-45 -170q-4 -14 -12 -22t-22 -8q-25 0 -33 30l-45 169l-29 -181q-2 -10 -9 -15.5t-18 -3.5q-10 2 -14 10t-2 18l33 192q3 17 13 25.5t24 8.5z" />
    <glyph glyph-name="braceleft" unicode="{" horiz-adv-x="380" 
d="M219 711q-13 0 -21.5 -8.5t-8.5 -21.5v-217q0 -32 -6.5 -57t-16.5 -43t-22 -30t-22 -19q10 -8 22 -20t22 -30t16.5 -42.5t6.5 -56.5v-231q0 -13 8 -21.5t21 -8.5h111q17 0 29.5 -12t12.5 -29t-12.5 -28.5t-29.5 -11.5h-117q-21 0 -40.5 8t-33.5 22.5t-22.5 33.5t-8.5 40
v237q0 37 -10.5 63t-42.5 51q-8 6 -14 14.5t-6 21.5q0 12 6 20.5t14 14.5q32 25 42.5 51t10.5 63v228q0 21 8 39t22 31.5t32 21.5t39 8h121q17 0 29.5 -11.5t12.5 -28.5t-12.5 -29t-29.5 -12h-110z" />
    <glyph glyph-name="braceright" unicode="}" horiz-adv-x="380" 
d="M272 -72q0 -21 -8 -40t-22.5 -33.5t-33.5 -22.5t-40 -8h-117q-17 0 -29.5 11.5t-12.5 28.5t12.5 29t29.5 12h110q13 0 21.5 8.5t8.5 21.5v231q0 32 6.5 56.5t16.5 42.5t21.5 30t22.5 20q-11 7 -22.5 19t-21.5 30t-16.5 43t-6.5 57v217q0 13 -8.5 21.5t-21.5 8.5h-110
q-17 0 -29.5 12t-12.5 29t12.5 28.5t29.5 11.5h121q42 0 71 -29t29 -71v-228q0 -37 10.5 -63t42.5 -51q8 -6 14 -14.5t6 -20.5q0 -13 -6 -21.5t-14 -14.5q-32 -25 -42.5 -51t-10.5 -63v-237z" />
    <glyph glyph-name="Scedilla" unicode="&#x15e;" horiz-adv-x="619" 
d="M262 -7q-59 8 -102 26t-80 44q-21 13 -21 36q0 18 12.5 30t29.5 12q6 0 13 -2.5t17 -9.5q18 -13 37.5 -24t42.5 -19t50 -12.5t62 -4.5q80 0 124.5 34t44.5 94q0 24 -9 42t-30 31.5t-55.5 24t-86.5 20.5q-121 23 -179 68t-58 127q0 46 17.5 83.5t49.5 63t76.5 39.5
t97.5 14q62 0 114.5 -16t83.5 -42q15 -13 15 -30t-10.5 -29t-27.5 -12q-10 0 -17.5 3t-14.5 7q-29 17 -64 28.5t-79 11.5t-74 -9.5t-49 -26t-27 -38t-8 -45.5t8.5 -42t29 -31.5t53.5 -24t83 -20.5q65 -12 111.5 -28.5t76 -39.5t43 -54.5t13.5 -74.5q0 -45 -17 -82.5t-49 -65
t-78 -43t-105 -15.5l-15 -36q40 -3 64 -27.5t24 -61.5q0 -25 -10.5 -44.5t-27.5 -34.5t-39 -26t-46 -19q-15 -5 -31 1.5t-16 28.5q0 8 4.5 17t20.5 14q48 19 62 32.5t14 28.5q0 9 -7.5 19.5t-23.5 10.5q-11 0 -16 -2t-14 -2q-17 0 -26.5 13t-2.5 30z" />
    <glyph glyph-name="scedilla" unicode="&#x15f;" horiz-adv-x="489" 
d="M222 -8q-46 4 -82.5 17t-65.5 38q-11 10 -13.5 26t5.5 28q10 13 25 16t31 -8q26 -18 55 -31.5t82 -13.5q52 0 79.5 24t27.5 59q0 26 -18.5 43.5t-61.5 28.5q-12 3 -19.5 4.5t-14.5 3t-15.5 3.5t-22.5 6q-70 18 -105.5 51.5t-35.5 90.5q0 36 14 64.5t38.5 48.5t59 31
t75.5 11q44 0 82 -12.5t63 -32.5q14 -11 13 -27.5t-9 -26.5q-10 -11 -25 -12t-30 7q-24 14 -47 22t-50 8q-53 0 -79 -20.5t-26 -57.5q0 -24 16.5 -41t61.5 -28q24 -7 48 -12t36 -8q132 -33 132 -141q0 -67 -43.5 -108.5t-116.5 -49.5l-15 -38q40 -3 64.5 -27.5t24.5 -61.5
q0 -25 -10.5 -44.5t-27.5 -34.5t-39 -26t-46 -19q-15 -5 -31 1.5t-16 28.5q0 8 4.5 17t20.5 14q24 9 39 17t23.5 15.5t11 14t2.5 14.5q0 9 -7.5 19t-23.5 10q-11 0 -16 -1.5t-14 -1.5q-17 0 -26 13t-3 30z" />
    <glyph glyph-name="ordmasculine" unicode="&#xba;" horiz-adv-x="468" 
d="M413 440q-3 -37 -17 -68t-38 -53.5t-55.5 -35t-68.5 -12.5t-68.5 13t-55 35.5t-38 53.5t-17.5 67q-2 24 -2 50.5t2 49.5q3 36 17.5 67t38 53.5t55 35.5t68.5 13t68.5 -13t55.5 -35.5t38 -53.5t17 -67q5 -48 0 -100zM234 346q43 0 71.5 27t33.5 72q3 46 0 90
q-5 44 -33.5 71.5t-71.5 27.5t-71.5 -27.5t-32.5 -71.5q-5 -44 0 -90q5 -45 33 -72t71 -27z" />
    <glyph glyph-name="backslash" unicode="\" horiz-adv-x="351" 
d="M13 760q16 7 31.5 0t21.5 -23l295 -742q7 -17 0 -33t-23 -22t-31.5 1t-21.5 24l-295 742q-6 15 0.5 31t22.5 22z" />
    <glyph glyph-name="twosuperior" unicode="&#xb2;" horiz-adv-x="457" 
d="M71 298q0 76 100 147q16 11 37.5 25t41 30t33.5 35t14 41q0 21 -18 41t-59 20q-27 0 -47.5 -12t-33.5 -28q-3 -4 -11.5 -11.5t-20.5 -7.5q-15 0 -26.5 10t-11.5 27q0 12 9 24q17 25 53 47.5t89 22.5q37 0 65.5 -10.5t47 -28t28 -41.5t9.5 -51q0 -28 -8 -49.5t-25.5 -41
t-44 -40t-63.5 -45.5q-38 -25 -57 -44t-23 -39h193q17 0 28 -10t11 -27t-11 -26.5t-28 -9.5h-223q-21 0 -34.5 14.5t-13.5 37.5z" />
    <glyph glyph-name="multiply" unicode="&#xd7;" horiz-adv-x="628" 
d="M530 194q12 -11 12.5 -28t-10.5 -29q-12 -13 -29 -12.5t-30 12.5l-159 158l-161 -161q-13 -12 -29 -12.5t-29 11.5q-11 11 -11 28t12 29l161 161l-161 161q-12 12 -12 29t11 28q13 12 29 11.5t29 -12.5l161 -161l159 159q13 12 30 12.5t29 -12.5q11 -12 10.5 -29
t-12.5 -28l-159 -158z" />
    <glyph glyph-name="ordfeminine" unicode="&#xaa;" horiz-adv-x="480" 
d="M437 309q0 -16 -10.5 -26.5t-27.5 -10.5q-20 0 -32 16q-14 17 -23 37q-29 -26 -62.5 -40t-62.5 -14q-81 0 -124.5 45.5t-48.5 117.5q-2 24 -2 55t2 56q5 76 50.5 120t122.5 44q28 0 53.5 -5t46.5 -12t36.5 -15t24.5 -14q7 -5 10.5 -11t3.5 -18v-185q0 -23 2.5 -39.5
t7 -29.5t11 -24t14.5 -23q8 -11 8 -24zM219 346q28 0 57 14t48 35q-4 24 -4 36.5v29.5v147q-12 9 -41 17.5t-60 8.5q-50 0 -73.5 -26.5t-25.5 -69.5q-2 -20 -2 -49.5t2 -49.5q2 -42 25 -67.5t74 -25.5z" />
    <glyph glyph-name="Uring" unicode="&#x16e;" horiz-adv-x="748" 
d="M657 284q0 -66 -21.5 -120t-59.5 -92.5t-89.5 -60t-112.5 -21.5t-112.5 21.5t-89.5 60t-59.5 92.5t-21.5 120v379q0 17 12 29.5t29 12.5t29 -12.5t12 -29.5v-378q0 -50 15 -90t42 -68t63.5 -43t80.5 -15q43 0 80 15t64 43t42 68t15 90v378q0 17 12 29.5t29 12.5t29 -12.5
t12 -29.5v-379zM278 849q0 19 7.5 36.5t21 31t30.5 21t37 7.5t37.5 -7.5t30.5 -21t20.5 -31t7.5 -36.5q0 -40 -28 -68t-68 -28q-20 0 -37 7.5t-30.5 20.5t-21 30.5t-7.5 37.5zM330 849q0 -19 13 -32t31 -13q19 0 31.5 13t12.5 32q0 18 -12.5 31t-31.5 13q-18 0 -31 -13
t-13 -31z" />
    <glyph glyph-name="uring" unicode="&#x16f;" 
d="M84 484q0 17 11.5 29.5t28.5 12.5t29 -12.5t12 -29.5v-290q0 -59 35.5 -92.5t98.5 -33.5q48 0 82 11.5t56 25.5v379q0 17 11.5 29.5t28.5 12.5t29 -12.5t12 -29.5v-400q0 -22 -17 -33q-11 -8 -29.5 -18.5t-44 -19.5t-57.5 -15.5t-71 -6.5q-48 0 -87.5 13.5t-68 39.5
t-44 64t-15.5 87v289zM209 686q0 19 7.5 36.5t21 31t30.5 21t37 7.5t37.5 -7.5t30.5 -21t20.5 -31t7.5 -36.5q0 -40 -28 -68t-68 -28q-20 0 -37 7.5t-30.5 20.5t-21 30.5t-7.5 37.5zM261 686q0 -19 13 -32t31 -13q19 0 31.5 13t12.5 32q0 18 -12.5 31t-31.5 13
q-18 0 -31 -13t-13 -31z" />
    <glyph glyph-name="onehalf" unicode="&#xbd;" horiz-adv-x="948" 
d="M510 707q6 15 20.5 21t28.5 1t20 -20t0 -29l-272 -689q-6 -14 -20.5 -20t-28.5 -1t-20.5 19.5t-1.5 29.5zM158 597l-62 -33q-14 -8 -28.5 -5t-22.5 17q-8 13 -4 29t19 24l105 63q8 5 15 7t12 2q20 0 31 -12t11 -31v-377q0 -17 -10.5 -27.5t-26.5 -10.5q-17 0 -28 11.5
t-11 26.5v316zM561 53q0 76 100 147q16 11 37.5 25t41 30t33.5 35t14 41q0 21 -18 41t-59 20q-27 0 -47.5 -12t-33.5 -28q-3 -4 -11.5 -11.5t-20.5 -7.5q-15 0 -26.5 10t-11.5 27q0 12 9 24q17 25 53 47.5t89 22.5q37 0 65.5 -10.5t47 -28t28 -41.5t9.5 -51q0 -28 -8 -49.5
t-25.5 -41t-44 -40t-63.5 -45.5q-38 -25 -57 -44t-23 -39h193q17 0 28 -10t11 -27t-11 -26.5t-28 -9.5h-223q-21 0 -34.5 14.5t-13.5 37.5z" />
    <glyph glyph-name="Uogonek" unicode="&#x172;" horiz-adv-x="748" 
d="M476 7q-53 -19 -75 -46.5t-22 -53.5q0 -25 14.5 -36.5t34.5 -11.5q21 0 41 13q11 8 23 6.5t20 -12.5t6 -24.5t-13 -21.5q-14 -11 -35 -18.5t-48 -7.5q-23 0 -43 8t-35 22t-24 34.5t-9 45.5q0 47 38 88q-56 4 -103.5 27t-82 61t-53.5 90t-19 114v375q0 17 12 29.5t29 12.5
t29 -12.5t12 -29.5v-374q0 -50 15 -90t42 -68t63.5 -43t80.5 -15q43 0 80 15t64 43t42 68t15 90v374q0 17 12 29.5t29 12.5t29 -12.5t12 -29.5v-375q0 -103 -49.5 -174.5t-131.5 -102.5z" />
    <glyph glyph-name="uogonek" unicode="&#x173;" horiz-adv-x="620" 
d="M518 70q0 -11 -5.5 -19.5t-20.5 -16.5q-44 -20 -74 -50t-30 -73q0 -27 15.5 -39.5t35.5 -12.5q23 0 40 14q11 8 23.5 6t20.5 -13t5.5 -24t-13.5 -21q-14 -11 -35 -19t-47 -8q-23 0 -43 8t-35 22t-24 34.5t-9 45.5q0 29 8 50t22 40q-26 -3 -53 -3q-48 0 -87.5 13.5
t-68 39.5t-44 64t-15.5 87v285q0 18 11.5 30t28.5 12t29 -12t12 -30v-286q0 -59 37 -92.5t97 -33.5q90 0 138 28v384q0 18 11.5 30t29.5 12q17 0 28.5 -12t11.5 -30v-410z" />
    <glyph glyph-name="section" unicode="&#xa7;" horiz-adv-x="580" 
d="M493 274q0 -25 -10.5 -48t-25.5 -40q41 -41 41 -109q0 -39 -15 -72t-42.5 -57t-65.5 -37.5t-83 -13.5q-33 0 -63.5 5.5t-56.5 13.5t-46 18.5t-32 20.5q-15 13 -15 34q0 16 11.5 27.5t26.5 11.5q10 0 16.5 -3.5t12.5 -6.5q34 -21 73 -31t71 -10q34 0 58 9t39 23t21.5 31.5
t6.5 35.5q0 28 -9.5 45.5t-28 29t-45 19t-60.5 16.5q-50 13 -83.5 27.5t-54 32t-29.5 38.5t-9 47q0 24 10 47.5t26 40.5q-41 43 -41 110q0 39 15.5 71.5t43 56.5t65.5 37.5t83 13.5q65 0 113 -18t71 -39q8 -6 12.5 -13.5t4.5 -21.5q0 -16 -11 -27.5t-28 -11.5
q-8 0 -15.5 3.5t-12.5 7.5q-34 21 -68 31t-65 10q-34 0 -58 -9t-39 -23.5t-21.5 -32t-6.5 -35.5q0 -28 10 -45.5t28.5 -29t45 -19t59.5 -16.5q50 -13 83.5 -27.5t54 -32t29.5 -38.5t9 -47zM303 256q27 -7 50 -14t43 -16l2 2q8 8 13.5 19t5.5 24t-6 23.5t-20.5 19.5
t-39.5 17.5t-64 17.5q-28 6 -51 13t-42 17l-2 -2q-8 -8 -13.5 -19t-5.5 -25q0 -12 6 -22.5t20.5 -19.5t39.5 -17.5t64 -17.5z" />
    <glyph glyph-name="cent" unicode="&#xa2;" horiz-adv-x="504" 
d="M321 579q47 -8 82 -36t50 -66q2 -4 3.5 -9t1.5 -11q0 -16 -12 -26.5t-26 -10.5t-22.5 8t-12.5 16q-13 30 -39 48.5t-59 18.5q-54 0 -82.5 -32.5t-33.5 -82.5q-5 -47 0 -93q5 -50 33.5 -81.5t82.5 -31.5q33 0 59 17.5t39 48.5q4 8 12.5 15.5t22.5 7.5t25.5 -10t11.5 -26
q0 -4 -1 -7.5t-3 -8.5q-20 -44 -53 -71.5t-79 -36.5v-89q0 -17 -10.5 -28t-25.5 -11t-26 11.5t-11 27.5v91q-65 12 -107.5 61t-47.5 118q-3 49 0 100q2 34 14.5 64t33 53.5t48 39.5t59.5 22v91q0 17 11 28t26 11t25.5 -11t10.5 -28v-91z" />
    <glyph glyph-name="threesuperior" unicode="&#xb3;" horiz-adv-x="432" 
d="M180 465q-14 0 -24.5 8.5t-10.5 23.5q0 6 3 13.5t9 12.5l89 96h-147q-16 0 -27 11t-11 27t11 26.5t27 10.5h197q20 0 35 -12t15 -33q0 -7 -3.5 -17.5t-17.5 -26.5l-68 -72q51 -7 82.5 -41.5t31.5 -85.5q0 -80 -64 -125.5t-176 -45.5h-15t-17 1q-16 1 -27 11t-11 26
q0 15 10.5 25.5t27.5 10.5q9 0 18.5 -0.5t19.5 -0.5q73 0 116 25.5t43 71.5q0 30 -20.5 47t-52.5 17q-15 0 -24.5 -2t-18.5 -2z" />
    <glyph glyph-name="dagger" unicode="&#x2020;" horiz-adv-x="497" 
d="M434 491q17 0 29 -12t12 -29t-12 -28.5t-29 -11.5h-145v-508q0 -18 -11.5 -30t-28.5 -12t-29 12.5t-12 29.5v508h-144q-18 0 -30 11.5t-12 28.5t12 29t30 12h144v176q0 17 12 29.5t29 12.5t28.5 -12.5t11.5 -29.5v-176h145z" />
    <glyph glyph-name="plusminus" unicode="&#xb1;" horiz-adv-x="628" 
d="M101 0q-17 0 -29 11t-12 28t12 28.5t29 11.5h426q17 0 29 -11.5t12 -28.5t-12 -28t-29 -11h-426zM275 320h-174q-17 0 -29 11t-12 28t12 28.5t29 11.5h174v174q0 17 11.5 29t28.5 12t28.5 -12t11.5 -29v-174h172q17 0 29 -11.5t12 -28.5t-12 -28t-29 -11h-172v-176
q0 -17 -11.5 -29.5t-28.5 -12.5t-28.5 13t-11.5 29v176z" />
    <glyph glyph-name="mu" unicode="&#xb5;" horiz-adv-x="616" 
d="M96 481q0 17 11.5 29t28.5 12t29 -12t12 -29v-287q0 -58 32 -92.5t93 -34.5q45 0 80.5 12t57.5 26v376q0 17 11.5 29t28.5 12t29 -12t12 -29v-399q0 -21 -15 -31q-12 -8 -30.5 -18.5t-43.5 -19.5t-57 -15.5t-71 -6.5q-76 0 -127 37v-168q0 -17 -12 -29.5t-29 -12.5
t-28.5 12.5t-11.5 29.5v621z" />
    <glyph glyph-name="mu" unicode="&#x3bc;" horiz-adv-x="616" 
d="M96 481q0 17 11.5 29t28.5 12t29 -12t12 -29v-287q0 -58 32 -92.5t93 -34.5q45 0 80.5 12t57.5 26v376q0 17 11.5 29t28.5 12t29 -12t12 -29v-399q0 -21 -15 -31q-12 -8 -30.5 -18.5t-43.5 -19.5t-57 -15.5t-71 -6.5q-76 0 -127 37v-168q0 -17 -12 -29.5t-29 -12.5
t-28.5 12.5t-11.5 29.5v621z" />
    <glyph glyph-name="minus" unicode="&#x2212;" horiz-adv-x="628" 
d="M101 311q-17 0 -29 11t-12 28t12 28.5t29 11.5h426q17 0 29 -11.5t12 -28.5t-12 -28t-29 -11h-426z" />
    <glyph glyph-name="logicalnot" unicode="&#xac;" horiz-adv-x="628" 
d="M568 136q0 -17 -11.5 -29t-28.5 -12t-28.5 12t-11.5 29v175h-387q-17 0 -29 11t-12 28t12 28.5t29 11.5h401q32 0 49 -19.5t17 -46.5v-188z" />
    <glyph glyph-name="onesuperior" unicode="&#xb9;" horiz-adv-x="334" 
d="M158 597l-62 -33q-14 -8 -28.5 -5t-22.5 17q-8 13 -4 29t19 24l105 63q8 5 15 7t12 2q20 0 31 -12t11 -31v-377q0 -17 -10.5 -27.5t-26.5 -10.5q-17 0 -28 11.5t-11 26.5v316z" />
    <glyph glyph-name="brokenbar" unicode="&#xa6;" horiz-adv-x="306" 
d="M150 311q17 0 29 -12.5t12 -29.5v-367q0 -18 -12 -30t-29 -12t-29 12.5t-12 29.5v367q0 17 12 29.5t29 12.5zM150 835q17 0 29 -12.5t12 -29.5v-367q0 -18 -12 -30t-29 -12t-29 12.5t-12 29.5v367q0 17 12 29.5t29 12.5z" />
    <glyph glyph-name="onequarter" unicode="&#xbc;" horiz-adv-x="965" 
d="M870 171q14 0 25 -9t11 -25t-10 -25.5t-26 -9.5h-39v-66q0 -14 -9.5 -25t-25.5 -11t-25.5 10t-9.5 26v65h-203q-23 0 -39 14t-16 38q0 9 3.5 20t19.5 28l202 229q11 13 23 20t26 7q25 0 39.5 -16t14.5 -39v-231h39zM592 171h169v190zM517 707q6 15 20.5 21t28.5 1t20 -20
t0 -29l-272 -689q-6 -14 -20.5 -20t-28.5 -1t-20.5 19.5t-1.5 29.5zM158 597l-62 -33q-14 -8 -28 -4t-23 18q-8 12 -2.5 28t17.5 23l116 65q10 6 20 6q17 0 27.5 -11t10.5 -28v-380q0 -17 -10.5 -27.5t-26.5 -10.5q-17 0 -28 11.5t-11 26.5v316z" />
    <glyph glyph-name="daggerdbl" unicode="&#x2021;" horiz-adv-x="497" 
d="M434 491q17 0 29 -12t12 -29t-12 -28.5t-29 -11.5h-145v-251h145q17 0 29 -11.5t12 -28.5q0 -18 -12 -29.5t-29 -11.5h-145v-176q0 -18 -11.5 -30t-28.5 -12t-29 12t-12 30v176h-144q-18 0 -30 11.5t-12 29.5q0 17 12 28.5t30 11.5h144v251h-144q-18 0 -30 11.5t-12 28.5
t12 29t30 12h144v176q0 17 12 29.5t29 12.5t28.5 -12.5t11.5 -29.5v-176h145z" />
    <glyph glyph-name="paragraph" unicode="&#xb6;" horiz-adv-x="709" 
d="M409 -192q-17 0 -29 12t-12 30v411h-37q-51 0 -94 14.5t-74.5 43t-49 69t-17.5 93.5q0 52 18 93t49 69t72.5 43t87.5 15h218q35 0 51 -18t16 -48v-785q0 -17 -11.5 -29.5t-28.5 -12.5t-29 12.5t-12 29.5v772h-78v-772q0 -18 -11.5 -30t-28.5 -12zM180 480
q0 -64 36.5 -102t116.5 -38h35v282h-39q-75 0 -112 -38.5t-37 -103.5z" />
    <glyph glyph-name="threequarters" unicode="&#xbe;" horiz-adv-x="1066" 
d="M983 171q14 0 25 -9t11 -25t-10 -25.5t-26 -9.5h-39v-66q0 -14 -9.5 -25t-25.5 -11t-25.5 10t-9.5 26v65h-203q-23 0 -39 14t-16 38q0 9 3.5 20t19.5 28l202 229q11 13 23 20t26 7q25 0 39.5 -16t14.5 -39v-231h39zM705 171h169v190zM180 465q-14 0 -24.5 8.5t-10.5 23.5
q0 6 3 13.5t9 12.5l89 96h-147q-16 0 -27 11t-11 27t11 26.5t27 10.5h197q20 0 35 -12t15 -33q0 -7 -3.5 -17.5t-17.5 -26.5l-68 -72q51 -7 82.5 -41.5t31.5 -85.5q0 -80 -64 -125.5t-176 -45.5h-15t-17 1q-16 1 -27 11t-11 26q0 15 10.5 25.5t27.5 10.5q9 0 18.5 -0.5
t19.5 -0.5q73 0 116 25.5t43 71.5q0 30 -20.5 47t-52.5 17q-15 0 -24.5 -2t-18.5 -2zM626 707q6 15 20.5 21t28.5 1t20 -20t0 -29l-272 -689q-6 -14 -20.5 -20t-28.5 -1t-20.5 19.5t-1.5 29.5z" />
    <glyph glyph-name="cedilla" unicode="&#xb8;" horiz-adv-x="360" 
d="M145 6q4 11 11.5 18t20.5 7q14 0 21.5 -8t7.5 -20q0 -6 -2 -12l-14 -36q41 -5 64.5 -28.5t23.5 -60.5q0 -25 -10.5 -44.5t-28 -34.5t-39.5 -26t-46 -19q-14 -5 -30 1.5t-16 28.5q0 8 4.5 17t19.5 14q24 9 39.5 17t23.5 15.5t11 14.5t3 15q0 9 -7.5 18.5t-23.5 9.5
q-11 0 -17 -1.5t-14 -1.5q-16 0 -25.5 13t-2.5 30z" />
    <glyph glyph-name="lessequal" unicode="&#x2264;" horiz-adv-x="628" 
d="M155 -10q-17 0 -29 11.5t-12 28.5t12 28t29 11h318q17 0 29 -11t12 -28t-12 -28.5t-29 -11.5h-318zM505 590q9 -15 5 -31.5t-18 -24.5l-277 -157q-6 -4 -9 -7t-3 -8q0 -8 12 -15l277 -157q14 -8 18 -25t-5 -31q-8 -14 -24 -18t-30 4l-285 164q-30 18 -40.5 37.5
t-10.5 40.5q0 20 10.5 39.5t40.5 37.5l285 164q14 9 30 5t24 -18z" />
    <glyph glyph-name="florin" unicode="&#x192;" horiz-adv-x="574" 
d="M410 389q17 0 28.5 -10.5t11.5 -27.5q0 -16 -11.5 -27t-28.5 -11h-171l-148 -486q-5 -17 -19.5 -25.5t-31.5 -3.5q-16 5 -24.5 20.5t-2.5 35.5l141 459h-45q-16 0 -28 11t-12 27q0 17 11.5 27.5t28.5 10.5h69l63 202q18 60 61.5 89t98.5 29t93.5 -17.5t61.5 -41.5
q11 -11 11 -28t-11 -28q-12 -13 -28 -11t-28 14q-12 11 -35 23t-58 12q-42 0 -61.5 -17.5t-30.5 -52.5l-53 -173h148z" />
    <glyph glyph-name="fraction" unicode="&#x2044;" horiz-adv-x="300" 
d="M251 707q6 15 20.5 21t28.5 1t20 -20t0 -29l-272 -689q-6 -14 -20.5 -20t-28.5 -1t-20.5 19.5t-1.5 29.5z" />
    <glyph glyph-name="greaterequal" unicode="&#x2265;" horiz-adv-x="628" 
d="M155 -10q-17 0 -29 11.5t-12 28.5t12 28t29 11h318q17 0 29 -11t12 -28t-12 -28.5t-29 -11.5h-318zM122 590q9 14 25 18t30 -5l285 -164q30 -18 40 -37.5t10 -39.5q0 -21 -10 -40.5t-40 -37.5l-285 -164q-14 -8 -30 -4t-25 18q-8 14 -4 31t18 25l277 157q12 7 12 15
q0 5 -3 8t-9 7l-277 157q-14 8 -18 24.5t4 31.5z" />
    <glyph glyph-name="Agrave" unicode="&#xc0;" horiz-adv-x="675" 
d="M650 41q0 -16 -10 -29t-30 -13q-13 0 -23.5 7t-15.5 19l-74 209h-319l-74 -209q-5 -12 -15.5 -19t-23.5 -7q-20 0 -30 13t-10 29q0 9 2 14l208 580q14 39 41.5 57.5t61.5 18.5t61 -18.5t41 -57.5l208 -580q2 -4 2 -14zM206 312h263l-105 299q-7 20 -26 20t-26 -20z
M383 818q19 -10 19 -31q0 -14 -10 -24t-24 -10q-8 0 -20 6l-133 69q-18 10 -18 30q0 14 9.5 24t23.5 10q8 0 18 -4z" />
    <glyph glyph-name="Aacute" unicode="&#xc1;" horiz-adv-x="675" 
d="M650 41q0 -16 -10 -29t-30 -13q-13 0 -23.5 7t-15.5 19l-74 209h-319l-74 -209q-5 -12 -15.5 -19t-23.5 -7q-20 0 -30 13t-10 29q0 9 2 14l208 580q14 39 41.5 57.5t61.5 18.5t61 -18.5t41 -57.5l208 -580q2 -4 2 -14zM206 312h263l-105 299q-7 20 -26 20t-26 -20z
M424 888q10 4 17 4q14 0 24 -10t10 -24q0 -20 -19 -30l-135 -70q-8 -5 -18 -5q-14 0 -23.5 10t-9.5 24q0 21 18 31z" />
    <glyph glyph-name="Acircumflex" unicode="&#xc2;" horiz-adv-x="675" 
d="M650 41q0 -16 -10 -29t-30 -13q-13 0 -23.5 7t-15.5 19l-74 209h-319l-74 -209q-5 -12 -15.5 -19t-23.5 -7q-20 0 -30 13t-10 29q0 9 2 14l208 580q14 39 41.5 57.5t61.5 18.5t61 -18.5t41 -57.5l208 -580q2 -4 2 -14zM206 312h263l-105 299q-7 20 -26 20t-26 -20z
M461 814q6 -5 10.5 -12t4.5 -16q0 -14 -10 -24t-24 -10q-12 0 -23 8l-81 61l-81 -61q-11 -8 -22 -8q-15 0 -24.5 10t-9.5 24q0 9 4 16t10 12l93 70q8 5 15 8.5t15 3.5t14.5 -3.5t14.5 -8.5z" />
    <glyph glyph-name="Atilde" unicode="&#xc3;" horiz-adv-x="675" 
d="M650 41q0 -16 -10 -29t-30 -13q-13 0 -23.5 7t-15.5 19l-74 209h-319l-74 -209q-5 -12 -15.5 -19t-23.5 -7q-20 0 -30 13t-10 29q0 9 2 14l208 580q14 39 41.5 57.5t61.5 18.5t61 -18.5t41 -57.5l208 -580q2 -4 2 -14zM206 312h263l-105 299q-7 20 -26 20t-26 -20z
M391 822q10 0 17 4t13.5 9.5t13 9.5t15.5 4q15 0 24 -10t9 -24q0 -9 -4 -15.5t-10 -11.5q-17 -15 -36.5 -24.5t-37.5 -9.5t-33 5.5t-29 12.5t-26 12.5t-24 5.5q-10 0 -17 -4t-13.5 -9.5t-13 -9.5t-15.5 -4q-15 0 -24 10t-9 24q0 9 4.5 15.5t9.5 11.5q17 15 36.5 24.5
t38.5 9.5q18 0 33.5 -5.5t28.5 -12.5t25 -12.5t24 -5.5z" />
    <glyph glyph-name="Adieresis" unicode="&#xc4;" horiz-adv-x="675" 
d="M650 41q0 -16 -10 -29t-30 -13q-13 0 -23.5 7t-15.5 19l-74 209h-319l-74 -209q-5 -12 -15.5 -19t-23.5 -7q-20 0 -30 13t-10 29q0 9 2 14l208 580q14 39 41.5 57.5t61.5 18.5t61 -18.5t41 -57.5l208 -580q2 -4 2 -14zM206 312h263l-105 299q-7 20 -26 20t-26 -20z
M259 851q19 0 32 -12.5t13 -32.5q0 -19 -13 -32t-32 -13q-20 0 -32.5 13t-12.5 32q0 20 12.5 32.5t32.5 12.5zM417 851q20 0 32.5 -12.5t12.5 -32.5q0 -19 -12.5 -32t-32.5 -13q-19 0 -32 13t-13 32q0 20 13 32.5t32 12.5z" />
    <glyph glyph-name="Amacron" unicode="&#x100;" horiz-adv-x="675" 
d="M650 41q0 -16 -10 -29t-30 -13q-13 0 -23.5 7t-15.5 19l-74 209h-319l-74 -209q-5 -12 -15.5 -19t-23.5 -7q-20 0 -30 13t-10 29q0 9 2 14l208 580q14 39 41.5 57.5t61.5 18.5t61 -18.5t41 -57.5l208 -580q2 -4 2 -14zM206 312h263l-105 299q-7 20 -26 20t-26 -20z
M420 840q14 0 24 -10t10 -24q0 -15 -10 -25t-24 -10h-164q-15 0 -25 10t-10 25q0 14 10 24t25 10h164z" />
    <glyph glyph-name="Abreve" unicode="&#x102;" horiz-adv-x="675" 
d="M650 41q0 -16 -10 -29t-30 -13q-13 0 -23.5 7t-15.5 19l-74 209h-319l-74 -209q-5 -12 -15.5 -19t-23.5 -7q-20 0 -30 13t-10 29q0 9 2 14l208 580q14 39 41.5 57.5t61.5 18.5t61 -18.5t41 -57.5l208 -580q2 -4 2 -14zM206 312h263l-105 299q-7 20 -26 20t-26 -20z
M338 819q20 0 36 12.5t21 32.5q3 11 12.5 17.5t20.5 6.5q14 0 24 -10t10 -24q0 -6 -3 -15q-12 -36 -44 -61t-77 -25t-77 25t-44 61q-3 9 -3 15q0 14 10 24t24 10q11 0 20 -6.5t13 -17.5q5 -20 21 -32.5t36 -12.5z" />
    <glyph glyph-name="Cacute" unicode="&#x106;" horiz-adv-x="662" 
d="M355 69q61 0 109.5 32.5t71.5 86.5q5 11 14 18.5t24 7.5q14 0 26.5 -11t12.5 -28q0 -8 -3 -18q-15 -38 -41 -68.5t-59.5 -52.5t-73 -34t-81.5 -12q-60 0 -110.5 21.5t-88 59t-60 88.5t-26.5 110q-6 82 0 162q4 59 26.5 110t60 88.5t88 59t110.5 21.5q42 0 81.5 -12
t73 -33.5t59.5 -52.5t41 -68q3 -11 3 -19q0 -17 -12.5 -27.5t-26.5 -10.5q-15 0 -24 7.5t-14 18.5q-23 54 -71.5 86t-109.5 32q-44 0 -79.5 -15.5t-62 -42.5t-42 -64.5t-19.5 -81.5q-5 -77 0 -154q4 -44 19.5 -81.5t42 -64.5t62 -42.5t79.5 -15.5zM432 888q10 4 17 4
q14 0 24 -10t10 -24q0 -20 -19 -30l-135 -70q-8 -5 -18 -5q-14 0 -23.5 10t-9.5 24q0 21 18 31z" />
    <glyph glyph-name="Ccaron" unicode="&#x10c;" horiz-adv-x="662" 
d="M355 69q61 0 109.5 32.5t71.5 86.5q5 11 14 18.5t24 7.5q14 0 26.5 -11t12.5 -28q0 -8 -3 -18q-15 -38 -41 -68.5t-59.5 -52.5t-73 -34t-81.5 -12q-60 0 -110.5 21.5t-88 59t-60 88.5t-26.5 110q-6 82 0 162q4 59 26.5 110t60 88.5t88 59t110.5 21.5q42 0 81.5 -12
t73 -33.5t59.5 -52.5t41 -68q3 -11 3 -19q0 -17 -12.5 -27.5t-26.5 -10.5q-15 0 -24 7.5t-14 18.5q-23 54 -71.5 86t-109.5 32q-44 0 -79.5 -15.5t-62 -42.5t-42 -64.5t-19.5 -81.5q-5 -77 0 -154q4 -44 19.5 -81.5t42 -64.5t62 -42.5t79.5 -15.5zM376 764q-8 -5 -14.5 -8.5
t-14.5 -3.5t-15 3.5t-15 8.5l-93 70q-14 10 -14 28q0 14 9.5 24t24.5 10q11 0 22 -8l81 -61l81 61q11 8 23 8q14 0 24 -10t10 -24q0 -9 -4.5 -16t-10.5 -12z" />
    <glyph glyph-name="Cdotaccent" unicode="&#x10a;" horiz-adv-x="662" 
d="M355 69q61 0 109.5 32.5t71.5 86.5q5 11 14 18.5t24 7.5q14 0 26.5 -11t12.5 -28q0 -8 -3 -18q-15 -38 -41 -68.5t-59.5 -52.5t-73 -34t-81.5 -12q-60 0 -110.5 21.5t-88 59t-60 88.5t-26.5 110q-6 82 0 162q4 59 26.5 110t60 88.5t88 59t110.5 21.5q42 0 81.5 -12
t73 -33.5t59.5 -52.5t41 -68q3 -11 3 -19q0 -17 -12.5 -27.5t-26.5 -10.5q-15 0 -24 7.5t-14 18.5q-23 54 -71.5 86t-109.5 32q-44 0 -79.5 -15.5t-62 -42.5t-42 -64.5t-19.5 -81.5q-5 -77 0 -154q4 -44 19.5 -81.5t42 -64.5t62 -42.5t79.5 -15.5zM353 851q19 0 32 -12.5
t13 -32.5q0 -19 -13 -32t-32 -13t-32 13t-13 32q0 20 13 32.5t32 12.5z" />
    <glyph glyph-name="Dcaron" unicode="&#x10e;" horiz-adv-x="719" 
d="M568 298q2 25 2 53.5t-2 50.5q-3 49 -17.5 90t-43 69.5t-71 44.5t-100.5 16h-154v-543h154q58 0 100 16t70.5 44.5t43.5 69t18 89.5zM169 0q-33 0 -51 20t-18 48v565q0 29 18 48.5t51 19.5h167q76 0 133 -22t96 -61.5t60 -94t25 -118.5q2 -27 2 -55.5t-2 -53.5
q-4 -64 -25 -118t-60 -93.5t-96 -62t-133 -22.5h-167zM377 764q-8 -5 -14.5 -8.5t-14.5 -3.5t-15 3.5t-15 8.5l-93 70q-14 10 -14 28q0 14 9.5 24t24.5 10q11 0 22 -8l81 -61l81 61q11 8 23 8q14 0 24 -10t10 -24q0 -9 -4.5 -16t-10.5 -12z" />
    <glyph glyph-name="Egrave" unicode="&#xc8;" horiz-adv-x="625" 
d="M515 701q17 0 29 -11.5t12 -28.5t-12.5 -28t-28.5 -11h-333v-230h324q17 0 28.5 -11t11.5 -28q0 -16 -12 -27.5t-28 -11.5h-324v-235h335q16 0 28.5 -11t12.5 -28t-12 -28.5t-29 -11.5h-347q-34 0 -52 20t-18 48v565q0 29 18 48.5t52 19.5h345zM391 818q19 -10 19 -31
q0 -14 -10 -24t-24 -10q-8 0 -20 6l-133 69q-18 10 -18 30q0 14 9.5 24t23.5 10q8 0 18 -4z" />
    <glyph glyph-name="Eacute" unicode="&#xc9;" horiz-adv-x="625" 
d="M515 701q17 0 29 -11.5t12 -28.5t-12.5 -28t-28.5 -11h-333v-230h324q17 0 28.5 -11t11.5 -28q0 -16 -12 -27.5t-28 -11.5h-324v-235h335q16 0 28.5 -11t12.5 -28t-12 -28.5t-29 -11.5h-347q-34 0 -52 20t-18 48v565q0 29 18 48.5t52 19.5h345zM370 888q10 4 17 4
q14 0 24 -10t10 -24q0 -20 -19 -30l-135 -70q-8 -5 -18 -5q-14 0 -23.5 10t-9.5 24q0 21 18 31z" />
    <glyph glyph-name="Ecircumflex" unicode="&#xca;" horiz-adv-x="625" 
d="M515 701q17 0 29 -11.5t12 -28.5t-12.5 -28t-28.5 -11h-333v-230h324q17 0 28.5 -11t11.5 -28q0 -16 -12 -27.5t-28 -11.5h-324v-235h335q16 0 28.5 -11t12.5 -28t-12 -28.5t-29 -11.5h-347q-34 0 -52 20t-18 48v565q0 29 18 48.5t52 19.5h345zM455 814q6 -5 10.5 -12
t4.5 -16q0 -14 -10 -24t-24 -10q-12 0 -23 8l-81 61l-81 -61q-11 -8 -22 -8q-15 0 -24.5 10t-9.5 24q0 9 4 16t10 12l93 70q8 5 15 8.5t15 3.5t14.5 -3.5t14.5 -8.5z" />
    <glyph glyph-name="Ecaron" unicode="&#x11a;" horiz-adv-x="625" 
d="M515 701q17 0 29 -11.5t12 -28.5t-12.5 -28t-28.5 -11h-333v-230h324q17 0 28.5 -11t11.5 -28q0 -16 -12 -27.5t-28 -11.5h-324v-235h335q16 0 28.5 -11t12.5 -28t-12 -28.5t-29 -11.5h-347q-34 0 -52 20t-18 48v565q0 29 18 48.5t52 19.5h345zM371 764q-8 -5 -14.5 -8.5
t-14.5 -3.5t-15 3.5t-15 8.5l-93 70q-14 10 -14 28q0 14 9.5 24t24.5 10q11 0 22 -8l81 -61l81 61q11 8 23 8q14 0 24 -10t10 -24q0 -9 -4.5 -16t-10.5 -12z" />
    <glyph glyph-name="Edieresis" unicode="&#xcb;" horiz-adv-x="625" 
d="M515 701q17 0 29 -11.5t12 -28.5t-12.5 -28t-28.5 -11h-333v-230h324q17 0 28.5 -11t11.5 -28q0 -16 -12 -27.5t-28 -11.5h-324v-235h335q16 0 28.5 -11t12.5 -28t-12 -28.5t-29 -11.5h-347q-34 0 -52 20t-18 48v565q0 29 18 48.5t52 19.5h345zM256 851q19 0 32 -12.5
t13 -32.5q0 -19 -13 -32t-32 -13q-20 0 -32.5 13t-12.5 32q0 20 12.5 32.5t32.5 12.5zM414 851q20 0 32.5 -12.5t12.5 -32.5q0 -19 -12.5 -32t-32.5 -13q-19 0 -32 13t-13 32q0 20 13 32.5t32 12.5z" />
    <glyph glyph-name="Emacron" unicode="&#x112;" horiz-adv-x="625" 
d="M515 701q17 0 29 -11.5t12 -28.5t-12.5 -28t-28.5 -11h-333v-230h324q17 0 28.5 -11t11.5 -28q0 -16 -12 -27.5t-28 -11.5h-324v-235h335q16 0 28.5 -11t12.5 -28t-12 -28.5t-29 -11.5h-347q-34 0 -52 20t-18 48v565q0 29 18 48.5t52 19.5h345zM416 840q14 0 24 -10
t10 -24q0 -15 -10 -25t-24 -10h-164q-15 0 -25 10t-10 25q0 14 10 24t25 10h164z" />
    <glyph glyph-name="Edotaccent" unicode="&#x116;" horiz-adv-x="625" 
d="M515 701q17 0 29 -11.5t12 -28.5t-12.5 -28t-28.5 -11h-333v-230h324q17 0 28.5 -11t11.5 -28q0 -16 -12 -27.5t-28 -11.5h-324v-235h335q16 0 28.5 -11t12.5 -28t-12 -28.5t-29 -11.5h-347q-34 0 -52 20t-18 48v565q0 29 18 48.5t52 19.5h345zM342 851q19 0 32 -12.5
t13 -32.5q0 -19 -13 -32t-32 -13t-32 13t-13 32q0 20 13 32.5t32 12.5z" />
    <glyph glyph-name="Gbreve" unicode="&#x11e;" horiz-adv-x="701" 
d="M633 240q0 -50 -19.5 -95.5t-55 -80t-85.5 -54.5t-111 -20q-60 0 -112 21.5t-90.5 59t-62 88.5t-27.5 110q-6 82 0 162q4 59 28 110t62.5 88.5t90 59t111.5 21.5q86 0 152 -41t101 -113q4 -8 4 -20q0 -17 -12 -28.5t-29 -11.5q-12 0 -21.5 6.5t-14.5 15.5
q-26 52 -71.5 82.5t-107.5 30.5q-44 0 -81 -15.5t-64.5 -42.5t-44.5 -64.5t-21 -81.5q-6 -79 0 -154q4 -44 21 -81.5t45 -64.5t64.5 -42.5t80.5 -15.5q42 0 77 12t60 33.5t38.5 51.5t13.5 65v62h-143q-17 0 -29.5 11.5t-12.5 28.5t12.5 28.5t29.5 11.5h155q34 0 51.5 -19.5
t17.5 -47.5v-66zM360 819q20 0 36 12.5t21 32.5q3 11 12.5 17.5t20.5 6.5q14 0 24 -10t10 -24q0 -6 -3 -15q-12 -36 -44 -61t-77 -25t-77 25t-44 61q-3 9 -3 15q0 14 10 24t24 10q11 0 20 -6.5t13 -17.5q5 -20 21 -32.5t36 -12.5z" />
    <glyph glyph-name="Gdotaccent" unicode="&#x120;" horiz-adv-x="701" 
d="M633 240q0 -50 -19.5 -95.5t-55 -80t-85.5 -54.5t-111 -20q-60 0 -112 21.5t-90.5 59t-62 88.5t-27.5 110q-6 82 0 162q4 59 28 110t62.5 88.5t90 59t111.5 21.5q86 0 152 -41t101 -113q4 -8 4 -20q0 -17 -12 -28.5t-29 -11.5q-12 0 -21.5 6.5t-14.5 15.5
q-26 52 -71.5 82.5t-107.5 30.5q-44 0 -81 -15.5t-64.5 -42.5t-44.5 -64.5t-21 -81.5q-6 -79 0 -154q4 -44 21 -81.5t45 -64.5t64.5 -42.5t80.5 -15.5q42 0 77 12t60 33.5t38.5 51.5t13.5 65v62h-143q-17 0 -29.5 11.5t-12.5 28.5t12.5 28.5t29.5 11.5h155q34 0 51.5 -19.5
t17.5 -47.5v-66zM360 851q19 0 32 -12.5t13 -32.5q0 -19 -13 -32t-32 -13t-32 13t-13 32q0 20 13 32.5t32 12.5z" />
    <glyph glyph-name="Gcommaaccent" unicode="&#x122;" horiz-adv-x="701" 
d="M633 240q0 -50 -19.5 -95.5t-55 -80t-85.5 -54.5t-111 -20q-60 0 -112 21.5t-90.5 59t-62 88.5t-27.5 110q-6 82 0 162q4 59 28 110t62.5 88.5t90 59t111.5 21.5q86 0 152 -41t101 -113q4 -8 4 -20q0 -17 -12 -28.5t-29 -11.5q-12 0 -21.5 6.5t-14.5 15.5
q-26 52 -71.5 82.5t-107.5 30.5q-44 0 -81 -15.5t-64.5 -42.5t-44.5 -64.5t-21 -81.5q-6 -79 0 -154q4 -44 21 -81.5t45 -64.5t64.5 -42.5t80.5 -15.5q42 0 77 12t60 33.5t38.5 51.5t13.5 65v62h-143q-17 0 -29.5 11.5t-12.5 28.5t12.5 28.5t29.5 11.5h155q34 0 51.5 -19.5
t17.5 -47.5v-66zM400 -99q0 -19 -5 -43.5t-20 -52.5q-7 -12 -18 -20t-25 -8q-17 0 -27 11.5t-10 25.5q0 10 3.5 17l8 16t8 21.5t3.5 35.5v26q0 17 12 28.5t29 11.5t29 -11.5t12 -28.5v-29z" />
    <glyph glyph-name="Igrave" unicode="&#xcc;" horiz-adv-x="282" 
d="M100 663q0 17 12 29.5t29 12.5q18 0 29.5 -12.5t11.5 -29.5v-625q0 -17 -11.5 -29.5t-29.5 -12.5q-17 0 -29 12.5t-12 29.5v625zM190 818q19 -10 19 -31q0 -14 -10 -24t-24 -10q-8 0 -20 6l-133 69q-18 10 -18 30q0 14 9.5 24t23.5 10q8 0 18 -4z" />
    <glyph glyph-name="Iacute" unicode="&#xcd;" horiz-adv-x="282" 
d="M100 663q0 17 12 29.5t29 12.5q18 0 29.5 -12.5t11.5 -29.5v-625q0 -17 -11.5 -29.5t-29.5 -12.5q-17 0 -29 12.5t-12 29.5v625zM221 888q10 4 17 4q14 0 24 -10t10 -24q0 -20 -19 -30l-135 -70q-8 -5 -18 -5q-14 0 -23.5 10t-9.5 24q0 21 18 31z" />
    <glyph glyph-name="Icircumflex" unicode="&#xce;" horiz-adv-x="282" 
d="M100 663q0 17 12 29.5t29 12.5q18 0 29.5 -12.5t11.5 -29.5v-625q0 -17 -11.5 -29.5t-29.5 -12.5q-17 0 -29 12.5t-12 29.5v625zM264 814q6 -5 10.5 -12t4.5 -16q0 -14 -10 -24t-24 -10q-12 0 -23 8l-81 61l-81 -61q-11 -8 -22 -8q-15 0 -24.5 10t-9.5 24q0 9 4 16t10 12
l93 70q8 5 15 8.5t15 3.5t14.5 -3.5t14.5 -8.5z" />
    <glyph glyph-name="Idieresis" unicode="&#xcf;" horiz-adv-x="282" 
d="M100 663q0 17 12 29.5t29 12.5q18 0 29.5 -12.5t11.5 -29.5v-625q0 -17 -11.5 -29.5t-29.5 -12.5q-17 0 -29 12.5t-12 29.5v625zM63 851q19 0 32 -12.5t13 -32.5q0 -19 -13 -32t-32 -13q-20 0 -32.5 13t-12.5 32q0 20 12.5 32.5t32.5 12.5zM221 851q20 0 32.5 -12.5
t12.5 -32.5q0 -19 -12.5 -32t-32.5 -13q-19 0 -32 13t-13 32q0 20 13 32.5t32 12.5z" />
    <glyph glyph-name="Imacron" unicode="&#x12a;" horiz-adv-x="282" 
d="M100 663q0 17 12 29.5t29 12.5q18 0 29.5 -12.5t11.5 -29.5v-625q0 -17 -11.5 -29.5t-29.5 -12.5q-17 0 -29 12.5t-12 29.5v625zM224 840q14 0 24 -10t10 -24q0 -15 -10 -25t-24 -10h-164q-15 0 -25 10t-10 25q0 14 10 24t25 10h164z" />
    <glyph glyph-name="Idotaccent" unicode="&#x130;" horiz-adv-x="282" 
d="M100 663q0 17 12 29.5t29 12.5q18 0 29.5 -12.5t11.5 -29.5v-625q0 -17 -11.5 -29.5t-29.5 -12.5q-17 0 -29 12.5t-12 29.5v625zM142 851q19 0 32 -12.5t13 -32.5q0 -19 -13 -32t-32 -13t-32 13t-13 32q0 20 13 32.5t32 12.5z" />
    <glyph glyph-name="Kcommaaccent" unicode="&#x136;" horiz-adv-x="629" 
d="M605 38q0 -16 -12 -28.5t-28 -12.5t-28 12l-292 282q-16 17 -29.5 20t-33.5 3v-276q0 -17 -11.5 -29.5t-29.5 -12.5q-17 0 -29 12.5t-12 29.5v625q0 17 12 29.5t29 12.5q18 0 29.5 -12.5t11.5 -29.5v-269q21 0 33.5 4t29.5 20l285 273q6 7 14 10t16 3q16 0 27.5 -12
t11.5 -28t-12 -28l-294 -279l300 -290q12 -14 12 -29zM370 -160q0 -19 -5 -43.5t-20 -52.5q-7 -12 -18 -20t-25 -8q-17 0 -27 11.5t-10 25.5q0 10 3.5 17l8 16t8 21.5t3.5 35.5v26q0 17 12 28.5t29 11.5t29 -11.5t12 -28.5v-29z" />
    <glyph glyph-name="Lacute" unicode="&#x139;" horiz-adv-x="566" 
d="M101 663q0 17 12 29.5t29 12.5q18 0 29.5 -12.5t11.5 -29.5v-584h327q17 0 29.5 -11t12.5 -28q0 -18 -12 -29t-30 -11h-342q-32 0 -49.5 19t-17.5 46v598zM264 889q10 4 17 4q14 0 24 -10t10 -24q0 -20 -19 -30l-135 -70q-8 -5 -18 -5q-14 0 -23.5 10t-9.5 24q0 21 18 31
z" />
    <glyph glyph-name="Lcaron" unicode="&#x13d;" horiz-adv-x="565" 
d="M100 663q0 17 12 29.5t29 12.5q18 0 29.5 -12.5t11.5 -29.5v-584h327q17 0 29.5 -11t12.5 -28q0 -18 -12 -29t-30 -11h-342q-32 0 -49.5 19t-17.5 46v598zM368 575q-7 -11 -16.5 -18t-21.5 -7q-17 0 -27.5 10.5t-10.5 24.5q0 9 4 17t9.5 18t9.5 23t4 31v22q0 17 11 28.5
t27 11.5q17 0 28 -11.5t11 -28.5v-20q0 -20 -6.5 -47.5t-21.5 -53.5z" />
    <glyph glyph-name="Lcommaaccent" unicode="&#x13b;" horiz-adv-x="565" 
d="M100 663q0 17 12 29.5t29 12.5q18 0 29.5 -12.5t11.5 -29.5v-584h327q17 0 29.5 -11t12.5 -28q0 -18 -12 -29t-30 -11h-342q-32 0 -49.5 19t-17.5 46v598zM367 -160q0 -19 -5 -43.5t-20 -52.5q-7 -12 -18 -20t-25 -8q-17 0 -27 11.5t-10 25.5q0 10 3.5 17l8 16t8 21.5
t3.5 35.5v26q0 17 12 28.5t29 11.5t29 -11.5t12 -28.5v-29z" />
    <glyph glyph-name="Nacute" unicode="&#x143;" horiz-adv-x="769" 
d="M588 97h2q-1 30 -2.5 64.5t-1.5 84.5v417q0 17 12 29.5t29 12.5q18 0 29.5 -12.5t11.5 -29.5v-595q0 -29 -18.5 -49.5t-47.5 -20.5q-43 0 -66 37l-355 575h-2q1 -31 2 -69t1 -86v-417q0 -18 -11.5 -30t-29.5 -12q-17 0 -29 12.5t-12 29.5v593q0 31 19 52t51 21
q20 0 37.5 -8.5t30.5 -30.5zM469 888q10 4 17 4q14 0 24 -10t10 -24q0 -20 -19 -30l-135 -70q-8 -5 -18 -5q-14 0 -23.5 10t-9.5 24q0 21 18 31z" />
    <glyph glyph-name="Ncaron" unicode="&#x147;" horiz-adv-x="769" 
d="M588 97h2q-1 30 -2.5 64.5t-1.5 84.5v417q0 17 12 29.5t29 12.5q18 0 29.5 -12.5t11.5 -29.5v-595q0 -29 -18.5 -49.5t-47.5 -20.5q-43 0 -66 37l-355 575h-2q1 -31 2 -69t1 -86v-417q0 -18 -11.5 -30t-29.5 -12q-17 0 -29 12.5t-12 29.5v593q0 31 19 52t51 21
q20 0 37.5 -8.5t30.5 -30.5zM415 764q-8 -5 -14.5 -8.5t-14.5 -3.5t-15 3.5t-15 8.5l-93 70q-14 10 -14 28q0 14 9.5 24t24.5 10q11 0 22 -8l81 -61l81 61q11 8 23 8q14 0 24 -10t10 -24q0 -9 -4.5 -16t-10.5 -12z" />
    <glyph glyph-name="Ntilde" unicode="&#xd1;" horiz-adv-x="769" 
d="M588 97h2q-1 30 -2.5 64.5t-1.5 84.5v417q0 17 12 29.5t29 12.5q18 0 29.5 -12.5t11.5 -29.5v-595q0 -29 -18.5 -49.5t-47.5 -20.5q-43 0 -66 37l-355 575h-2q1 -31 2 -69t1 -86v-417q0 -18 -11.5 -30t-29.5 -12q-17 0 -29 12.5t-12 29.5v593q0 31 19 52t51 21
q20 0 37.5 -8.5t30.5 -30.5zM440 824q10 0 17 4t13.5 9.5t13 9.5t15.5 4q15 0 24 -10t9 -24q0 -9 -4 -15.5t-10 -11.5q-17 -15 -36.5 -24.5t-37.5 -9.5t-33 5.5t-29 12.5t-26 12.5t-24 5.5q-10 0 -17 -4t-13.5 -9.5t-13 -9.5t-15.5 -4q-15 0 -24 10t-9 24q0 9 4.5 15.5
t9.5 11.5q17 15 36.5 24.5t38.5 9.5q18 0 33.5 -5.5t28.5 -12.5t25 -12.5t24 -5.5z" />
    <glyph glyph-name="Ncommaaccent" unicode="&#x145;" horiz-adv-x="769" 
d="M588 97h2q-1 30 -2.5 64.5t-1.5 84.5v417q0 17 12 29.5t29 12.5q18 0 29.5 -12.5t11.5 -29.5v-595q0 -29 -18.5 -49.5t-47.5 -20.5q-43 0 -66 37l-355 575h-2q1 -31 2 -69t1 -86v-417q0 -18 -11.5 -30t-29.5 -12q-17 0 -29 12.5t-12 29.5v593q0 31 19 52t51 21
q20 0 37.5 -8.5t30.5 -30.5zM428 -160q0 -19 -5 -43.5t-20 -52.5q-7 -12 -18 -20t-25 -8q-17 0 -27 11.5t-10 25.5q0 10 3.5 17l8 16t8 21.5t3.5 35.5v26q0 17 12 28.5t29 11.5t29 -11.5t12 -28.5v-29z" />
    <glyph glyph-name="Ograve" unicode="&#xd2;" horiz-adv-x="729" 
d="M363 -10q-60 0 -111.5 21.5t-90.5 59t-63 88.5t-28 110q-6 82 0 162q4 59 28 110t63 88.5t90.5 59t111.5 21.5t112.5 -21.5t92 -59.5t63.5 -89t28 -109q6 -80 0 -162q-4 -59 -28 -110t-63.5 -88.5t-92 -59t-112.5 -21.5zM363 69q44 0 81.5 15.5t65.5 42.5t45 64.5
t21 81.5q8 77 0 155q-4 44 -21.5 81t-45.5 64t-65.5 42.5t-80.5 15.5t-80 -15.5t-64.5 -42.5t-45 -64t-21.5 -81q-6 -78 0 -155q4 -44 21.5 -81.5t45 -64.5t64.5 -42.5t80 -15.5zM422 818q19 -10 19 -31q0 -14 -10 -24t-24 -10q-8 0 -20 6l-133 69q-18 10 -18 30
q0 14 9.5 24t23.5 10q8 0 18 -4z" />
    <glyph glyph-name="Oacute" unicode="&#xd3;" horiz-adv-x="729" 
d="M363 -10q-60 0 -111.5 21.5t-90.5 59t-63 88.5t-28 110q-6 82 0 162q4 59 28 110t63 88.5t90.5 59t111.5 21.5t112.5 -21.5t92 -59.5t63.5 -89t28 -109q6 -80 0 -162q-4 -59 -28 -110t-63.5 -88.5t-92 -59t-112.5 -21.5zM363 69q44 0 81.5 15.5t65.5 42.5t45 64.5
t21 81.5q8 77 0 155q-4 44 -21.5 81t-45.5 64t-65.5 42.5t-80.5 15.5t-80 -15.5t-64.5 -42.5t-45 -64t-21.5 -81q-6 -78 0 -155q4 -44 21.5 -81.5t45 -64.5t64.5 -42.5t80 -15.5zM440 888q10 4 17 4q14 0 24 -10t10 -24q0 -20 -19 -30l-135 -70q-8 -5 -18 -5q-14 0 -23.5 10
t-9.5 24q0 21 18 31z" />
    <glyph glyph-name="Ocircumflex" unicode="&#xd4;" horiz-adv-x="729" 
d="M363 -10q-60 0 -111.5 21.5t-90.5 59t-63 88.5t-28 110q-6 82 0 162q4 59 28 110t63 88.5t90.5 59t111.5 21.5t112.5 -21.5t92 -59.5t63.5 -89t28 -109q6 -80 0 -162q-4 -59 -28 -110t-63.5 -88.5t-92 -59t-112.5 -21.5zM363 69q44 0 81.5 15.5t65.5 42.5t45 64.5
t21 81.5q8 77 0 155q-4 44 -21.5 81t-45.5 64t-65.5 42.5t-80.5 15.5t-80 -15.5t-64.5 -42.5t-45 -64t-21.5 -81q-6 -78 0 -155q4 -44 21.5 -81.5t45 -64.5t64.5 -42.5t80 -15.5zM488 814q6 -5 10.5 -12t4.5 -16q0 -14 -10 -24t-24 -10q-12 0 -23 8l-81 61l-81 -61
q-11 -8 -22 -8q-15 0 -24.5 10t-9.5 24q0 9 4 16t10 12l93 70q8 5 15 8.5t15 3.5t14.5 -3.5t14.5 -8.5z" />
    <glyph glyph-name="Otilde" unicode="&#xd5;" horiz-adv-x="729" 
d="M363 -10q-60 0 -111.5 21.5t-90.5 59t-63 88.5t-28 110q-6 82 0 162q4 59 28 110t63 88.5t90.5 59t111.5 21.5t112.5 -21.5t92 -59.5t63.5 -89t28 -109q6 -80 0 -162q-4 -59 -28 -110t-63.5 -88.5t-92 -59t-112.5 -21.5zM363 69q44 0 81.5 15.5t65.5 42.5t45 64.5
t21 81.5q8 77 0 155q-4 44 -21.5 81t-45.5 64t-65.5 42.5t-80.5 15.5t-80 -15.5t-64.5 -42.5t-45 -64t-21.5 -81q-6 -78 0 -155q4 -44 21.5 -81.5t45 -64.5t64.5 -42.5t80 -15.5zM417 820q10 0 17 4t13.5 9.5t13 9.5t15.5 4q15 0 24 -10t9 -24q0 -9 -4 -15.5t-10 -11.5
q-17 -15 -36.5 -24.5t-37.5 -9.5t-33 5.5t-29 12.5t-26 12.5t-24 5.5q-10 0 -17 -4t-13.5 -9.5t-13 -9.5t-15.5 -4q-15 0 -24 10t-9 24q0 9 4.5 15.5t9.5 11.5q17 15 36.5 24.5t38.5 9.5q18 0 33.5 -5.5t28.5 -12.5t25 -12.5t24 -5.5z" />
    <glyph glyph-name="Odieresis" unicode="&#xd6;" horiz-adv-x="729" 
d="M363 -10q-60 0 -111.5 21.5t-90.5 59t-63 88.5t-28 110q-6 82 0 162q4 59 28 110t63 88.5t90.5 59t111.5 21.5t112.5 -21.5t92 -59.5t63.5 -89t28 -109q6 -80 0 -162q-4 -59 -28 -110t-63.5 -88.5t-92 -59t-112.5 -21.5zM363 69q44 0 81.5 15.5t65.5 42.5t45 64.5
t21 81.5q8 77 0 155q-4 44 -21.5 81t-45.5 64t-65.5 42.5t-80.5 15.5t-80 -15.5t-64.5 -42.5t-45 -64t-21.5 -81q-6 -78 0 -155q4 -44 21.5 -81.5t45 -64.5t64.5 -42.5t80 -15.5zM286 851q19 0 32 -12.5t13 -32.5q0 -19 -13 -32t-32 -13q-20 0 -32.5 13t-12.5 32
q0 20 12.5 32.5t32.5 12.5zM444 851q20 0 32.5 -12.5t12.5 -32.5q0 -19 -12.5 -32t-32.5 -13q-19 0 -32 13t-13 32q0 20 13 32.5t32 12.5z" />
    <glyph glyph-name="Omacron" unicode="&#x14c;" horiz-adv-x="729" 
d="M363 -10q-60 0 -111.5 21.5t-90.5 59t-63 88.5t-28 110q-6 82 0 162q4 59 28 110t63 88.5t90.5 59t111.5 21.5t112.5 -21.5t92 -59.5t63.5 -89t28 -109q6 -80 0 -162q-4 -59 -28 -110t-63.5 -88.5t-92 -59t-112.5 -21.5zM363 69q44 0 81.5 15.5t65.5 42.5t45 64.5
t21 81.5q8 77 0 155q-4 44 -21.5 81t-45.5 64t-65.5 42.5t-80.5 15.5t-80 -15.5t-64.5 -42.5t-45 -64t-21.5 -81q-6 -78 0 -155q4 -44 21.5 -81.5t45 -64.5t64.5 -42.5t80 -15.5zM447 840q14 0 24 -10t10 -24q0 -15 -10 -25t-24 -10h-164q-15 0 -25 10t-10 25q0 14 10 24
t25 10h164z" />
    <glyph glyph-name="Ohungarumlaut" unicode="&#x150;" horiz-adv-x="729" 
d="M363 -10q-60 0 -111.5 21.5t-90.5 59t-63 88.5t-28 110q-6 82 0 162q4 59 28 110t63 88.5t90.5 59t111.5 21.5t112.5 -21.5t92 -59.5t63.5 -89t28 -109q6 -80 0 -162q-4 -59 -28 -110t-63.5 -88.5t-92 -59t-112.5 -21.5zM363 69q44 0 81.5 15.5t65.5 42.5t45 64.5
t21 81.5q8 77 0 155q-4 44 -21.5 81t-45.5 64t-65.5 42.5t-80.5 15.5t-80 -15.5t-64.5 -42.5t-45 -64t-21.5 -81q-6 -78 0 -155q4 -44 21.5 -81.5t45 -64.5t64.5 -42.5t80 -15.5zM306 761q-11 -9 -23 -9q-14 0 -24 10t-10 24q0 16 10 25l100 92q11 9 22 9q14 0 24.5 -10
t10.5 -25t-11 -25zM455 761q-11 -9 -23 -9q-14 0 -24.5 10t-10.5 24q0 16 11 25l100 92q9 9 22 9q14 0 24.5 -10t10.5 -25t-11 -25z" />
    <glyph glyph-name="Racute" unicode="&#x154;" horiz-adv-x="678" 
d="M619 39q0 -17 -12.5 -30t-29.5 -13q-18 0 -30 14l-188 232q-12 15 -23.5 23.5t-32.5 8.5h-121v-236q0 -17 -12 -29.5t-29 -12.5t-29 12.5t-12 29.5v596q0 28 17.5 47.5t50.5 19.5h204q46 0 87 -14t72 -41t49 -67.5t18 -92.5q0 -45 -12.5 -79t-35 -58t-54 -39t-68.5 -21
l182 -225q9 -11 9 -25zM362 352q42 0 71.5 9.5t47.5 27.5t26 42.5t8 54.5q0 63 -36 99.5t-112 36.5h-185v-270h180zM413 888q10 4 17 4q14 0 24 -10t10 -24q0 -20 -19 -30l-135 -70q-8 -5 -18 -5q-14 0 -23.5 10t-9.5 24q0 21 18 31z" />
    <glyph glyph-name="Rcaron" unicode="&#x158;" horiz-adv-x="678" 
d="M619 39q0 -17 -12.5 -30t-29.5 -13q-18 0 -30 14l-188 232q-12 15 -23.5 23.5t-32.5 8.5h-121v-236q0 -17 -12 -29.5t-29 -12.5t-29 12.5t-12 29.5v596q0 28 17.5 47.5t50.5 19.5h204q46 0 87 -14t72 -41t49 -67.5t18 -92.5q0 -45 -12.5 -79t-35 -58t-54 -39t-68.5 -21
l182 -225q9 -11 9 -25zM362 352q42 0 71.5 9.5t47.5 27.5t26 42.5t8 54.5q0 63 -36 99.5t-112 36.5h-185v-270h180zM368 764q-8 -5 -14.5 -8.5t-14.5 -3.5t-15 3.5t-15 8.5l-93 70q-14 10 -14 28q0 14 9.5 24t24.5 10q11 0 22 -8l81 -61l81 61q11 8 23 8q14 0 24 -10t10 -24
q0 -9 -4.5 -16t-10.5 -12z" />
    <glyph glyph-name="Rcommaaccent" unicode="&#x156;" horiz-adv-x="678" 
d="M619 39q0 -17 -12.5 -30t-29.5 -13q-18 0 -30 14l-188 232q-12 15 -23.5 23.5t-32.5 8.5h-121v-236q0 -17 -12 -29.5t-29 -12.5t-29 12.5t-12 29.5v596q0 28 17.5 47.5t50.5 19.5h204q46 0 87 -14t72 -41t49 -67.5t18 -92.5q0 -45 -12.5 -79t-35 -58t-54 -39t-68.5 -21
l182 -225q9 -11 9 -25zM362 352q42 0 71.5 9.5t47.5 27.5t26 42.5t8 54.5q0 63 -36 99.5t-112 36.5h-185v-270h180zM379 -160q0 -19 -5 -43.5t-20 -52.5q-7 -12 -18 -20t-25 -8q-17 0 -27 11.5t-10 25.5q0 10 3.5 17l8 16t8 21.5t3.5 35.5v26q0 17 12 28.5t29 11.5t29 -11.5
t12 -28.5v-29z" />
    <glyph glyph-name="Sacute" unicode="&#x15a;" horiz-adv-x="619" 
d="M331 394q65 -12 111.5 -28.5t76 -39.5t43 -54.5t13.5 -74.5q0 -45 -17 -83t-49.5 -65.5t-79.5 -43t-107 -15.5q-82 0 -139.5 21t-102.5 52q-21 13 -21 36q0 18 12 30t30 12q6 0 13 -2.5t17 -9.5q37 -26 80 -42.5t112 -16.5q80 0 124.5 33.5t44.5 93.5q0 24 -9 42
t-30 31.5t-55.5 24t-86.5 20.5q-121 23 -179 68t-58 127q0 46 17.5 83.5t49.5 63t76.5 39.5t97.5 14q62 0 115 -15.5t82 -40.5q16 -13 16 -34q0 -16 -11.5 -27.5t-26.5 -11.5q-10 0 -17.5 3t-14.5 7q-29 16 -64 28t-79 12t-74 -9.5t-49 -26t-27 -38t-8 -45.5t8.5 -42
t29 -31.5t53.5 -24t83 -20.5zM386 888q10 4 17 4q14 0 24 -10t10 -24q0 -20 -19 -30l-135 -70q-8 -5 -18 -5q-14 0 -23.5 10t-9.5 24q0 21 18 31z" />
    <glyph glyph-name="Scaron" unicode="&#x160;" horiz-adv-x="619" 
d="M331 394q65 -12 111.5 -28.5t76 -39.5t43 -54.5t13.5 -74.5q0 -45 -17 -83t-49.5 -65.5t-79.5 -43t-107 -15.5q-82 0 -139.5 21t-102.5 52q-21 13 -21 36q0 18 12 30t30 12q6 0 13 -2.5t17 -9.5q37 -26 80 -42.5t112 -16.5q80 0 124.5 33.5t44.5 93.5q0 24 -9 42
t-30 31.5t-55.5 24t-86.5 20.5q-121 23 -179 68t-58 127q0 46 17.5 83.5t49.5 63t76.5 39.5t97.5 14q62 0 115 -15.5t82 -40.5q16 -13 16 -34q0 -16 -11.5 -27.5t-26.5 -11.5q-10 0 -17.5 3t-14.5 7q-29 16 -64 28t-79 12t-74 -9.5t-49 -26t-27 -38t-8 -45.5t8.5 -42
t29 -31.5t53.5 -24t83 -20.5zM340 762q-8 -5 -14.5 -8.5t-14.5 -3.5t-15 3.5t-15 8.5l-93 70q-14 10 -14 28q0 14 9.5 24t24.5 10q11 0 22 -8l81 -61l81 61q11 8 23 8q14 0 24 -10t10 -24q0 -9 -4.5 -16t-10.5 -12z" />
    <glyph glyph-name="Scommaaccent" unicode="&#x218;" horiz-adv-x="619" 
d="M331 394q65 -12 111.5 -28.5t76 -39.5t43 -54.5t13.5 -74.5q0 -45 -17 -83t-49.5 -65.5t-79.5 -43t-107 -15.5q-82 0 -139.5 21t-102.5 52q-21 13 -21 36q0 18 12 30t30 12q6 0 13 -2.5t17 -9.5q37 -26 80 -42.5t112 -16.5q80 0 124.5 33.5t44.5 93.5q0 24 -9 42
t-30 31.5t-55.5 24t-86.5 20.5q-121 23 -179 68t-58 127q0 46 17.5 83.5t49.5 63t76.5 39.5t97.5 14q62 0 115 -15.5t82 -40.5q16 -13 16 -34q0 -16 -11.5 -27.5t-26.5 -11.5q-10 0 -17.5 3t-14.5 7q-29 16 -64 28t-79 12t-74 -9.5t-49 -26t-27 -38t-8 -45.5t8.5 -42
t29 -31.5t53.5 -24t83 -20.5zM361 -99q0 -19 -5 -43.5t-20 -52.5q-7 -12 -18 -20t-25 -8q-17 0 -27 11.5t-10 25.5q0 10 3.5 17l8 16t8 21.5t3.5 35.5v26q0 17 12 28.5t29 11.5t29 -11.5t12 -28.5v-29z" />
    <glyph glyph-name="Tcaron" unicode="&#x164;" horiz-adv-x="600" 
d="M260 622h-200q-17 0 -29.5 11t-12.5 28q0 18 12.5 29t29.5 11h480q17 0 29 -11t12 -29q0 -17 -12 -28t-29 -11h-198v-584q0 -17 -12 -29.5t-29 -12.5t-29 12.5t-12 29.5v584zM329 764q-8 -5 -14.5 -8.5t-14.5 -3.5t-15 3.5t-15 8.5l-93 70q-14 10 -14 28q0 14 9.5 24
t24.5 10q11 0 22 -8l81 -61l81 61q11 8 23 8q14 0 24 -10t10 -24q0 -9 -4.5 -16t-10.5 -12z" />
    <glyph glyph-name="Tcommaaccent" unicode="&#x162;" horiz-adv-x="600" 
d="M260 622h-200q-17 0 -29.5 11t-12.5 28q0 18 12.5 29t29.5 11h480q17 0 29 -11t12 -29q0 -17 -12 -28t-29 -11h-198v-584q0 -17 -12 -29.5t-29 -12.5t-29 12.5t-12 29.5v584zM342 -160q0 -19 -5 -43.5t-20 -52.5q-7 -12 -18 -20t-25 -8q-17 0 -27 11.5t-10 25.5
q0 10 3.5 17l8 16t8 21.5t3.5 35.5v26q0 17 12 28.5t29 11.5t29 -11.5t12 -28.5v-29z" />
    <glyph glyph-name="Ugrave" unicode="&#xd9;" horiz-adv-x="748" 
d="M657 284q0 -66 -21.5 -120t-59.5 -92.5t-89.5 -60t-112.5 -21.5t-112.5 21.5t-89.5 60t-59.5 92.5t-21.5 120v379q0 17 12 29.5t29 12.5t29 -12.5t12 -29.5v-378q0 -50 15 -90t42 -68t63.5 -43t80.5 -15q43 0 80 15t64 43t42 68t15 90v378q0 17 12 29.5t29 12.5t29 -12.5
t12 -29.5v-379zM451 818q19 -10 19 -31q0 -14 -10 -24t-24 -10q-8 0 -20 6l-133 69q-18 10 -18 30q0 14 9.5 24t23.5 10q8 0 18 -4z" />
    <glyph glyph-name="Uacute" unicode="&#xda;" horiz-adv-x="748" 
d="M657 284q0 -66 -21.5 -120t-59.5 -92.5t-89.5 -60t-112.5 -21.5t-112.5 21.5t-89.5 60t-59.5 92.5t-21.5 120v379q0 17 12 29.5t29 12.5t29 -12.5t12 -29.5v-378q0 -50 15 -90t42 -68t63.5 -43t80.5 -15q43 0 80 15t64 43t42 68t15 90v378q0 17 12 29.5t29 12.5t29 -12.5
t12 -29.5v-379zM430 888q10 4 17 4q14 0 24 -10t10 -24q0 -20 -19 -30l-135 -70q-8 -5 -18 -5q-14 0 -23.5 10t-9.5 24q0 21 18 31z" />
    <glyph glyph-name="Ucircumflex" unicode="&#xdb;" horiz-adv-x="748" 
d="M657 284q0 -66 -21.5 -120t-59.5 -92.5t-89.5 -60t-112.5 -21.5t-112.5 21.5t-89.5 60t-59.5 92.5t-21.5 120v379q0 17 12 29.5t29 12.5t29 -12.5t12 -29.5v-378q0 -50 15 -90t42 -68t63.5 -43t80.5 -15q43 0 80 15t64 43t42 68t15 90v378q0 17 12 29.5t29 12.5t29 -12.5
t12 -29.5v-379zM497 814q6 -5 10.5 -12t4.5 -16q0 -14 -10 -24t-24 -10q-12 0 -23 8l-81 61l-81 -61q-11 -8 -22 -8q-15 0 -24.5 10t-9.5 24q0 9 4 16t10 12l93 70q8 5 15 8.5t15 3.5t14.5 -3.5t14.5 -8.5z" />
    <glyph glyph-name="Udieresis" unicode="&#xdc;" horiz-adv-x="748" 
d="M657 284q0 -66 -21.5 -120t-59.5 -92.5t-89.5 -60t-112.5 -21.5t-112.5 21.5t-89.5 60t-59.5 92.5t-21.5 120v379q0 17 12 29.5t29 12.5t29 -12.5t12 -29.5v-378q0 -50 15 -90t42 -68t63.5 -43t80.5 -15q43 0 80 15t64 43t42 68t15 90v378q0 17 12 29.5t29 12.5t29 -12.5
t12 -29.5v-379zM295 851q19 0 32 -12.5t13 -32.5q0 -19 -13 -32t-32 -13q-20 0 -32.5 13t-12.5 32q0 20 12.5 32.5t32.5 12.5zM453 851q20 0 32.5 -12.5t12.5 -32.5q0 -19 -12.5 -32t-32.5 -13q-19 0 -32 13t-13 32q0 20 13 32.5t32 12.5z" />
    <glyph glyph-name="Umacron" unicode="&#x16a;" horiz-adv-x="748" 
d="M657 284q0 -66 -21.5 -120t-59.5 -92.5t-89.5 -60t-112.5 -21.5t-112.5 21.5t-89.5 60t-59.5 92.5t-21.5 120v379q0 17 12 29.5t29 12.5t29 -12.5t12 -29.5v-378q0 -50 15 -90t42 -68t63.5 -43t80.5 -15q43 0 80 15t64 43t42 68t15 90v378q0 17 12 29.5t29 12.5t29 -12.5
t12 -29.5v-379zM456 839q14 0 24 -10t10 -24q0 -15 -10 -25t-24 -10h-164q-15 0 -25 10t-10 25q0 14 10 24t25 10h164z" />
    <glyph glyph-name="Uhungarumlaut" unicode="&#x170;" horiz-adv-x="748" 
d="M657 284q0 -66 -21.5 -120t-59.5 -92.5t-89.5 -60t-112.5 -21.5t-112.5 21.5t-89.5 60t-59.5 92.5t-21.5 120v379q0 17 12 29.5t29 12.5t29 -12.5t12 -29.5v-378q0 -50 15 -90t42 -68t63.5 -43t80.5 -15q43 0 80 15t64 43t42 68t15 90v378q0 17 12 29.5t29 12.5t29 -12.5
t12 -29.5v-379zM318 761q-11 -9 -23 -9q-14 0 -24 10t-10 24q0 16 10 25l100 92q11 9 22 9q14 0 24.5 -10t10.5 -25t-11 -25zM467 761q-11 -9 -23 -9q-14 0 -24.5 10t-10.5 24q0 16 11 25l100 92q9 9 22 9q14 0 24.5 -10t10.5 -25t-11 -25z" />
    <glyph glyph-name="Wgrave" unicode="&#x1e80;" horiz-adv-x="946" 
d="M38 664q0 15 10 27.5t30 12.5q14 0 26 -8t14 -22l126 -606q1 -2 3 -2t3 2l149 574q8 31 28.5 46t44.5 15q22 0 42.5 -15t28.5 -46l148 -574q1 -3 3 -3t3 3l129 606q4 14 15 22t25 8q20 0 30 -13t10 -28q0 -7 -1 -10l-140 -601q-7 -30 -27.5 -45.5t-43.5 -15.5t-44 15.5
t-29 44.5l-148 570q-1 2 -2.5 2t-2.5 -2l-150 -570q-8 -29 -28 -45t-43 -16q-24 0 -45 16t-28 47l-135 600q-1 4 -1 11zM529 818q19 -10 19 -31q0 -14 -10 -24t-24 -10q-8 0 -20 6l-133 69q-18 10 -18 30q0 14 9.5 24t23.5 10q8 0 18 -4z" />
    <glyph glyph-name="Wacute" unicode="&#x1e82;" horiz-adv-x="946" 
d="M38 664q0 15 10 27.5t30 12.5q14 0 26 -8t14 -22l126 -606q1 -2 3 -2t3 2l149 574q8 31 28.5 46t44.5 15q22 0 42.5 -15t28.5 -46l148 -574q1 -3 3 -3t3 3l129 606q4 14 15 22t25 8q20 0 30 -13t10 -28q0 -7 -1 -10l-140 -601q-7 -30 -27.5 -45.5t-43.5 -15.5t-44 15.5
t-29 44.5l-148 570q-1 2 -2.5 2t-2.5 -2l-150 -570q-8 -29 -28 -45t-43 -16q-24 0 -45 16t-28 47l-135 600q-1 4 -1 11zM547 888q10 4 17 4q14 0 24 -10t10 -24q0 -20 -19 -30l-135 -70q-8 -5 -18 -5q-14 0 -23.5 10t-9.5 24q0 21 18 31z" />
    <glyph glyph-name="Wcircumflex" unicode="&#x174;" horiz-adv-x="946" 
d="M38 664q0 15 10 27.5t30 12.5q14 0 26 -8t14 -22l126 -606q1 -2 3 -2t3 2l149 574q8 31 28.5 46t44.5 15q22 0 42.5 -15t28.5 -46l148 -574q1 -3 3 -3t3 3l129 606q4 14 15 22t25 8q20 0 30 -13t10 -28q0 -7 -1 -10l-140 -601q-7 -30 -27.5 -45.5t-43.5 -15.5t-44 15.5
t-29 44.5l-148 570q-1 2 -2.5 2t-2.5 -2l-150 -570q-8 -29 -28 -45t-43 -16q-24 0 -45 16t-28 47l-135 600q-1 4 -1 11zM596 814q6 -5 10.5 -12t4.5 -16q0 -14 -10 -24t-24 -10q-12 0 -23 8l-81 61l-81 -61q-11 -8 -22 -8q-15 0 -24.5 10t-9.5 24q0 9 4 16t10 12l93 70
q8 5 15 8.5t15 3.5t14.5 -3.5t14.5 -8.5z" />
    <glyph glyph-name="Wdieresis" unicode="&#x1e84;" horiz-adv-x="946" 
d="M38 664q0 15 10 27.5t30 12.5q14 0 26 -8t14 -22l126 -606q1 -2 3 -2t3 2l149 574q8 31 28.5 46t44.5 15q22 0 42.5 -15t28.5 -46l148 -574q1 -3 3 -3t3 3l129 606q4 14 15 22t25 8q20 0 30 -13t10 -28q0 -7 -1 -10l-140 -601q-7 -30 -27.5 -45.5t-43.5 -15.5t-44 15.5
t-29 44.5l-148 570q-1 2 -2.5 2t-2.5 -2l-150 -570q-8 -29 -28 -45t-43 -16q-24 0 -45 16t-28 47l-135 600q-1 4 -1 11zM394 851q19 0 32 -12.5t13 -32.5q0 -19 -13 -32t-32 -13q-20 0 -32.5 13t-12.5 32q0 20 12.5 32.5t32.5 12.5zM552 851q20 0 32.5 -12.5t12.5 -32.5
q0 -19 -12.5 -32t-32.5 -13q-19 0 -32 13t-13 32q0 20 13 32.5t32 12.5z" />
    <glyph glyph-name="Ygrave" unicode="&#x1ef2;" horiz-adv-x="647" 
d="M589 705q17 0 29.5 -12t12.5 -29q0 -16 -10 -27l-230 -282q-12 -15 -19.5 -25.5t-7.5 -31.5v-260q0 -17 -11.5 -29.5t-29.5 -12.5q-17 0 -29 12.5t-12 29.5v260q0 21 -7.5 32t-19.5 26l-229 280q-5 6 -7.5 13.5t-2.5 14.5q0 16 12.5 28t29.5 12q20 0 32 -15l233 -292
l234 292q13 16 32 16zM364 818q19 -10 19 -31q0 -14 -10 -24t-24 -10q-8 0 -20 6l-133 69q-18 10 -18 30q0 14 9.5 24t23.5 10q8 0 18 -4z" />
    <glyph glyph-name="Yacute" unicode="&#xdd;" horiz-adv-x="647" 
d="M589 705q17 0 29.5 -12t12.5 -29q0 -16 -10 -27l-230 -282q-12 -15 -19.5 -25.5t-7.5 -31.5v-260q0 -17 -11.5 -29.5t-29.5 -12.5q-17 0 -29 12.5t-12 29.5v260q0 21 -7.5 32t-19.5 26l-229 280q-5 6 -7.5 13.5t-2.5 14.5q0 16 12.5 28t29.5 12q20 0 32 -15l233 -292
l234 292q13 16 32 16zM374 888q10 4 17 4q14 0 24 -10t10 -24q0 -20 -19 -30l-135 -70q-8 -5 -18 -5q-14 0 -23.5 10t-9.5 24q0 21 18 31z" />
    <glyph glyph-name="Ycircumflex" unicode="&#x176;" horiz-adv-x="647" 
d="M589 705q17 0 29.5 -12t12.5 -29q0 -16 -10 -27l-230 -282q-12 -15 -19.5 -25.5t-7.5 -31.5v-260q0 -17 -11.5 -29.5t-29.5 -12.5q-17 0 -29 12.5t-12 29.5v260q0 21 -7.5 32t-19.5 26l-229 280q-5 6 -7.5 13.5t-2.5 14.5q0 16 12.5 28t29.5 12q20 0 32 -15l233 -292
l234 292q13 16 32 16zM447 814q6 -5 10.5 -12t4.5 -16q0 -14 -10 -24t-24 -10q-12 0 -23 8l-81 61l-81 -61q-11 -8 -22 -8q-15 0 -24.5 10t-9.5 24q0 9 4 16t10 12l93 70q8 5 15 8.5t15 3.5t14.5 -3.5t14.5 -8.5z" />
    <glyph glyph-name="Ydieresis" unicode="&#x178;" horiz-adv-x="647" 
d="M589 705q17 0 29.5 -12t12.5 -29q0 -16 -10 -27l-230 -282q-12 -15 -19.5 -25.5t-7.5 -31.5v-260q0 -17 -11.5 -29.5t-29.5 -12.5q-17 0 -29 12.5t-12 29.5v260q0 21 -7.5 32t-19.5 26l-229 280q-5 6 -7.5 13.5t-2.5 14.5q0 16 12.5 28t29.5 12q20 0 32 -15l233 -292
l234 292q13 16 32 16zM244 801q19 0 32 -12.5t13 -32.5q0 -19 -13 -32t-32 -13q-20 0 -32.5 13t-12.5 32q0 20 12.5 32.5t32.5 12.5zM402 801q20 0 32.5 -12.5t12.5 -32.5q0 -19 -12.5 -32t-32.5 -13q-19 0 -32 13t-13 32q0 20 13 32.5t32 12.5z" />
    <glyph glyph-name="Zacute" unicode="&#x179;" horiz-adv-x="586" 
d="M125 0q-35 0 -54.5 18.5t-19.5 47.5q0 24 20 50l365 506h-339q-17 0 -29 10.5t-12 27.5q0 18 12 29.5t29 11.5h357q35 0 54 -18.5t19 -46.5q0 -14 -6 -26.5t-17 -29.5l-362 -501h364q17 0 29.5 -11t12.5 -28q0 -18 -12.5 -29t-29.5 -11h-381zM364 888q10 4 17 4
q14 0 24 -10t10 -24q0 -20 -19 -30l-135 -70q-8 -5 -18 -5q-14 0 -23.5 10t-9.5 24q0 21 18 31z" />
    <glyph glyph-name="Zcaron" unicode="&#x17d;" horiz-adv-x="586" 
d="M125 0q-35 0 -54.5 18.5t-19.5 47.5q0 24 20 50l365 506h-339q-17 0 -29 10.5t-12 27.5q0 18 12 29.5t29 11.5h357q35 0 54 -18.5t19 -46.5q0 -14 -6 -26.5t-17 -29.5l-362 -501h364q17 0 29.5 -11t12.5 -28q0 -18 -12.5 -29t-29.5 -11h-381zM330 764q-8 -5 -14.5 -8.5
t-14.5 -3.5t-15 3.5t-15 8.5l-93 70q-14 10 -14 28q0 14 9.5 24t24.5 10q11 0 22 -8l81 -61l81 61q11 8 23 8q14 0 24 -10t10 -24q0 -9 -4.5 -16t-10.5 -12z" />
    <glyph glyph-name="Zdotaccent" unicode="&#x17b;" horiz-adv-x="586" 
d="M125 0q-35 0 -54.5 18.5t-19.5 47.5q0 24 20 50l365 506h-339q-17 0 -29 10.5t-12 27.5q0 18 12 29.5t29 11.5h357q35 0 54 -18.5t19 -46.5q0 -14 -6 -26.5t-17 -29.5l-362 -501h364q17 0 29.5 -11t12.5 -28q0 -18 -12.5 -29t-29.5 -11h-381zM292 851q19 0 32 -12.5
t13 -32.5q0 -19 -13 -32t-32 -13t-32 13t-13 32q0 20 13 32.5t32 12.5z" />
    <glyph glyph-name="agrave" unicode="&#xe0;" horiz-adv-x="562" 
d="M481 80q0 -11 -3.5 -19t-13.5 -14q-10 -8 -29.5 -17.5t-46 -18t-59.5 -14.5t-69 -6q-99 0 -149.5 47.5t-50.5 122.5q0 33 12.5 62.5t37.5 51.5t62.5 35t88.5 13q36 0 68.5 -5t71.5 -16v41q0 61 -30.5 88t-94.5 27q-35 0 -66 -9t-53 -17q-26 -10 -42 1t-16 30q0 11 6 21
t20 17q23 11 65.5 21.5t93.5 10.5q45 0 81 -11t62 -33.5t40 -58t14 -84.5v-266zM269 64q30 0 53.5 4.5t39.5 10.5t26 12.5t13 9.5v131q-38 10 -69.5 16t-69.5 6q-51 0 -86 -23.5t-35 -67.5q0 -48 31.5 -73.5t96.5 -25.5zM363 654q19 -10 19 -31q0 -14 -10 -24t-24 -10
q-8 0 -20 6l-133 69q-18 10 -18 30q0 14 9.5 24t23.5 10q8 0 18 -4z" />
    <glyph glyph-name="aacute" unicode="&#xe1;" horiz-adv-x="562" 
d="M481 80q0 -11 -3.5 -19t-13.5 -14q-10 -8 -29.5 -17.5t-46 -18t-59.5 -14.5t-69 -6q-99 0 -149.5 47.5t-50.5 122.5q0 33 12.5 62.5t37.5 51.5t62.5 35t88.5 13q36 0 68.5 -5t71.5 -16v41q0 61 -30.5 88t-94.5 27q-35 0 -66 -9t-53 -17q-26 -10 -42 1t-16 30q0 11 6 21
t20 17q23 11 65.5 21.5t93.5 10.5q45 0 81 -11t62 -33.5t40 -58t14 -84.5v-266zM269 64q30 0 53.5 4.5t39.5 10.5t26 12.5t13 9.5v131q-38 10 -69.5 16t-69.5 6q-51 0 -86 -23.5t-35 -67.5q0 -48 31.5 -73.5t96.5 -25.5zM339 724q10 4 17 4q14 0 24 -10t10 -24
q0 -20 -19 -30l-135 -70q-8 -5 -18 -5q-14 0 -23.5 10t-9.5 24q0 21 18 31z" />
    <glyph glyph-name="acircumflex" unicode="&#xe2;" horiz-adv-x="562" 
d="M481 80q0 -11 -3.5 -19t-13.5 -14q-10 -8 -29.5 -17.5t-46 -18t-59.5 -14.5t-69 -6q-99 0 -149.5 47.5t-50.5 122.5q0 33 12.5 62.5t37.5 51.5t62.5 35t88.5 13q36 0 68.5 -5t71.5 -16v41q0 61 -30.5 88t-94.5 27q-35 0 -66 -9t-53 -17q-26 -10 -42 1t-16 30q0 11 6 21
t20 17q23 11 65.5 21.5t93.5 10.5q45 0 81 -11t62 -33.5t40 -58t14 -84.5v-266zM269 64q30 0 53.5 4.5t39.5 10.5t26 12.5t13 9.5v131q-38 10 -69.5 16t-69.5 6q-51 0 -86 -23.5t-35 -67.5q0 -48 31.5 -73.5t96.5 -25.5zM407 638q6 -5 10.5 -12t4.5 -16q0 -14 -10 -24
t-24 -10q-12 0 -23 8l-81 61l-81 -61q-11 -8 -22 -8q-15 0 -24.5 10t-9.5 24q0 9 4 16t10 12l93 70q8 5 15 8.5t15 3.5t14.5 -3.5t14.5 -8.5z" />
    <glyph glyph-name="atilde" unicode="&#xe3;" horiz-adv-x="562" 
d="M481 80q0 -11 -3.5 -19t-13.5 -14q-10 -8 -29.5 -17.5t-46 -18t-59.5 -14.5t-69 -6q-99 0 -149.5 47.5t-50.5 122.5q0 33 12.5 62.5t37.5 51.5t62.5 35t88.5 13q36 0 68.5 -5t71.5 -16v41q0 61 -30.5 88t-94.5 27q-35 0 -66 -9t-53 -17q-26 -10 -42 1t-16 30q0 11 6 21
t20 17q23 11 65.5 21.5t93.5 10.5q45 0 81 -11t62 -33.5t40 -58t14 -84.5v-266zM269 64q30 0 53.5 4.5t39.5 10.5t26 12.5t13 9.5v131q-38 10 -69.5 16t-69.5 6q-51 0 -86 -23.5t-35 -67.5q0 -48 31.5 -73.5t96.5 -25.5zM337 661q10 0 17 4t13.5 9.5t13 9.5t15.5 4
q15 0 24 -10t9 -24q0 -9 -4 -15.5t-10 -11.5q-17 -15 -36.5 -24.5t-37.5 -9.5t-33 5.5t-29 12.5t-26 12.5t-24 5.5q-10 0 -17 -4t-13.5 -9.5t-13 -9.5t-15.5 -4q-15 0 -24 10t-9 24q0 9 4.5 15.5t9.5 11.5q17 15 36.5 24.5t38.5 9.5q18 0 33.5 -5.5t28.5 -12.5t25 -12.5
t24 -5.5z" />
    <glyph glyph-name="adieresis" unicode="&#xe4;" horiz-adv-x="562" 
d="M481 80q0 -11 -3.5 -19t-13.5 -14q-10 -8 -29.5 -17.5t-46 -18t-59.5 -14.5t-69 -6q-99 0 -149.5 47.5t-50.5 122.5q0 33 12.5 62.5t37.5 51.5t62.5 35t88.5 13q36 0 68.5 -5t71.5 -16v41q0 61 -30.5 88t-94.5 27q-35 0 -66 -9t-53 -17q-26 -10 -42 1t-16 30q0 11 6 21
t20 17q23 11 65.5 21.5t93.5 10.5q45 0 81 -11t62 -33.5t40 -58t14 -84.5v-266zM269 64q30 0 53.5 4.5t39.5 10.5t26 12.5t13 9.5v131q-38 10 -69.5 16t-69.5 6q-51 0 -86 -23.5t-35 -67.5q0 -48 31.5 -73.5t96.5 -25.5zM205 690q19 0 32 -12.5t13 -32.5q0 -19 -13 -32
t-32 -13q-20 0 -32.5 13t-12.5 32q0 20 12.5 32.5t32.5 12.5zM363 690q20 0 32.5 -12.5t12.5 -32.5q0 -19 -12.5 -32t-32.5 -13q-19 0 -32 13t-13 32q0 20 13 32.5t32 12.5z" />
    <glyph glyph-name="amacron" unicode="&#x101;" horiz-adv-x="562" 
d="M481 80q0 -11 -3.5 -19t-13.5 -14q-10 -8 -29.5 -17.5t-46 -18t-59.5 -14.5t-69 -6q-99 0 -149.5 47.5t-50.5 122.5q0 33 12.5 62.5t37.5 51.5t62.5 35t88.5 13q36 0 68.5 -5t71.5 -16v41q0 61 -30.5 88t-94.5 27q-35 0 -66 -9t-53 -17q-26 -10 -42 1t-16 30q0 11 6 21
t20 17q23 11 65.5 21.5t93.5 10.5q45 0 81 -11t62 -33.5t40 -58t14 -84.5v-266zM269 64q30 0 53.5 4.5t39.5 10.5t26 12.5t13 9.5v131q-38 10 -69.5 16t-69.5 6q-51 0 -86 -23.5t-35 -67.5q0 -48 31.5 -73.5t96.5 -25.5zM366 678q14 0 24 -10t10 -24q0 -15 -10 -25t-24 -10
h-164q-15 0 -25 10t-10 25q0 14 10 24t25 10h164z" />
    <glyph glyph-name="abreve" unicode="&#x103;" horiz-adv-x="562" 
d="M481 80q0 -11 -3.5 -19t-13.5 -14q-10 -8 -29.5 -17.5t-46 -18t-59.5 -14.5t-69 -6q-99 0 -149.5 47.5t-50.5 122.5q0 33 12.5 62.5t37.5 51.5t62.5 35t88.5 13q36 0 68.5 -5t71.5 -16v41q0 61 -30.5 88t-94.5 27q-35 0 -66 -9t-53 -17q-26 -10 -42 1t-16 30q0 11 6 21
t20 17q23 11 65.5 21.5t93.5 10.5q45 0 81 -11t62 -33.5t40 -58t14 -84.5v-266zM269 64q30 0 53.5 4.5t39.5 10.5t26 12.5t13 9.5v131q-38 10 -69.5 16t-69.5 6q-51 0 -86 -23.5t-35 -67.5q0 -48 31.5 -73.5t96.5 -25.5zM283 655q20 0 36 12.5t21 32.5q3 11 12.5 17.5
t20.5 6.5q14 0 24 -10t10 -24q0 -6 -3 -15q-12 -36 -44 -61t-77 -25t-77 25t-44 61q-3 9 -3 15q0 14 10 24t24 10q11 0 20 -6.5t13 -17.5q5 -20 21 -32.5t36 -12.5z" />
    <glyph glyph-name="aring" unicode="&#xe5;" horiz-adv-x="562" 
d="M481 80q0 -11 -3.5 -19t-13.5 -14q-10 -8 -29.5 -17.5t-46 -18t-59.5 -14.5t-69 -6q-99 0 -149.5 47.5t-50.5 122.5q0 33 12.5 62.5t37.5 51.5t62.5 35t88.5 13q36 0 68.5 -5t71.5 -16v41q0 61 -30.5 88t-94.5 27q-35 0 -66 -9t-53 -17q-26 -10 -42 1t-16 30q0 11 6 21
t20 17q23 11 65.5 21.5t93.5 10.5q45 0 81 -11t62 -33.5t40 -58t14 -84.5v-266zM269 64q30 0 53.5 4.5t39.5 10.5t26 12.5t13 9.5v131q-38 10 -69.5 16t-69.5 6q-51 0 -86 -23.5t-35 -67.5q0 -48 31.5 -73.5t96.5 -25.5zM188 664q0 19 7.5 36.5t21 31t30.5 21t37 7.5
t37.5 -7.5t30.5 -21t20.5 -31t7.5 -36.5q0 -40 -28 -68t-68 -28q-20 0 -37 7.5t-30.5 20.5t-21 30.5t-7.5 37.5zM240 664q0 -19 13 -32t31 -13q19 0 31.5 13t12.5 32q0 18 -12.5 31t-31.5 13q-18 0 -31 -13t-13 -31z" />
    <glyph glyph-name="cacute" unicode="&#x107;" horiz-adv-x="557" 
d="M298 67q39 0 74.5 20.5t53.5 64.5q7 15 16.5 21t22.5 6q16 0 27 -11.5t11 -29.5q0 -17 -12.5 -42.5t-38 -48.5t-64.5 -39.5t-91 -16.5q-48 0 -88.5 15.5t-69.5 43t-46 64.5t-20 79q-1 15 -1.5 33.5t-0.5 37.5t0.5 37.5t1.5 33.5q3 44 20.5 80.5t47 62.5t69.5 40.5
t87 14.5q52 0 90.5 -16.5t63.5 -40t37.5 -48.5t12.5 -42q0 -18 -11 -29.5t-27 -11.5q-12 0 -22 6t-17 21q-17 44 -52 64.5t-74 20.5q-63 0 -101 -34.5t-43 -92.5q-1 -10 -1.5 -27t-0.5 -36t0.5 -37.5t1.5 -31.5q5 -56 41.5 -93.5t102.5 -37.5zM365 724q10 4 17 4
q14 0 24 -10t10 -24q0 -20 -19 -30l-135 -70q-8 -5 -18 -5q-14 0 -23.5 10t-9.5 24q0 21 18 31z" />
    <glyph glyph-name="ccaron" unicode="&#x10d;" horiz-adv-x="557" 
d="M298 67q39 0 74.5 20.5t53.5 64.5q7 15 16.5 21t22.5 6q16 0 27 -11.5t11 -29.5q0 -17 -12.5 -42.5t-38 -48.5t-64.5 -39.5t-91 -16.5q-48 0 -88.5 15.5t-69.5 43t-46 64.5t-20 79q-1 15 -1.5 33.5t-0.5 37.5t0.5 37.5t1.5 33.5q3 44 20.5 80.5t47 62.5t69.5 40.5
t87 14.5q52 0 90.5 -16.5t63.5 -40t37.5 -48.5t12.5 -42q0 -18 -11 -29.5t-27 -11.5q-12 0 -22 6t-17 21q-17 44 -52 64.5t-74 20.5q-63 0 -101 -34.5t-43 -92.5q-1 -10 -1.5 -27t-0.5 -36t0.5 -37.5t1.5 -31.5q5 -56 41.5 -93.5t102.5 -37.5zM320 601q-8 -5 -14.5 -8.5
t-14.5 -3.5t-15 3.5t-15 8.5l-93 70q-14 10 -14 28q0 14 9.5 24t24.5 10q11 0 22 -8l81 -61l81 61q11 8 23 8q14 0 24 -10t10 -24q0 -9 -4.5 -16t-10.5 -12z" />
    <glyph glyph-name="cdotaccent" unicode="&#x10b;" horiz-adv-x="557" 
d="M298 67q39 0 74.5 20.5t53.5 64.5q7 15 16.5 21t22.5 6q16 0 27 -11.5t11 -29.5q0 -17 -12.5 -42.5t-38 -48.5t-64.5 -39.5t-91 -16.5q-48 0 -88.5 15.5t-69.5 43t-46 64.5t-20 79q-1 15 -1.5 33.5t-0.5 37.5t0.5 37.5t1.5 33.5q3 44 20.5 80.5t47 62.5t69.5 40.5
t87 14.5q52 0 90.5 -16.5t63.5 -40t37.5 -48.5t12.5 -42q0 -18 -11 -29.5t-27 -11.5q-12 0 -22 6t-17 21q-17 44 -52 64.5t-74 20.5q-63 0 -101 -34.5t-43 -92.5q-1 -10 -1.5 -27t-0.5 -36t0.5 -37.5t1.5 -31.5q5 -56 41.5 -93.5t102.5 -37.5zM294 690q19 0 32 -12.5
t13 -32.5q0 -19 -13 -32t-32 -13t-32 13t-13 32q0 20 13 32.5t32 12.5z" />
    <glyph glyph-name="dcaron" unicode="&#x10f;" horiz-adv-x="631" 
d="M74 334q8 94 61 146.5t149 52.5q41 0 79 -10t65 -22v168q0 17 11.5 29.5t28.5 12.5q18 0 29.5 -12.5t11.5 -29.5v-585q0 -11 -3 -18t-14 -15q-9 -6 -28 -16.5t-45.5 -20t-58 -16.5t-65.5 -7q-100 0 -156.5 54.5t-64.5 147.5q-1 13 -1.5 31.5t-0.5 38.5t0.5 38.5t1.5 32.5
zM155 199q12 -132 141 -132q18 0 38 4t38 10t33 13.5t23 13.5v314q-18 11 -57 23t-84 12q-65 0 -96 -32.5t-36 -94.5q-1 -11 -1.5 -28t-0.5 -36t0.5 -36.5t1.5 -30.5zM642 575q-7 -11 -16.5 -18t-21.5 -7q-17 0 -27.5 10.5t-10.5 24.5q0 9 4 17t9.5 18t9.5 23t4 31v22
q0 17 11 28.5t27 11.5q17 0 28 -11.5t11 -28.5v-20q0 -20 -6.5 -47.5t-21.5 -53.5z" />
    <glyph glyph-name="egrave" unicode="&#xe8;" horiz-adv-x="572" 
d="M510 286q0 -26 -14 -42t-45 -16h-299v-16q0 -71 41.5 -109t107.5 -38q27 0 57.5 7t64.5 19q13 5 24 4t18.5 -6t11.5 -13t4 -17q0 -10 -4.5 -19t-17.5 -17q-12 -7 -30.5 -13t-40 -10t-44.5 -6.5t-44 -2.5q-52 0 -93 15.5t-70 44t-45 68t-19 87.5q-2 29 -1.5 63t2.5 57
q4 48 22 86.5t47 65.5t67.5 41t84.5 14q49 0 89 -16t68 -45t43 -68.5t15 -87.5v-30zM418 296q11 0 13 12q2 34 -6.5 62t-26.5 48t-44 31t-58 11q-74 0 -110 -44.5t-34 -119.5h266zM362 654q19 -10 19 -31q0 -14 -10 -24t-24 -10q-8 0 -20 6l-133 69q-18 10 -18 30
q0 14 9.5 24t23.5 10q8 0 18 -4z" />
    <glyph glyph-name="eacute" unicode="&#xe9;" horiz-adv-x="572" 
d="M510 286q0 -26 -14 -42t-45 -16h-299v-16q0 -71 41.5 -109t107.5 -38q27 0 57.5 7t64.5 19q13 5 24 4t18.5 -6t11.5 -13t4 -17q0 -10 -4.5 -19t-17.5 -17q-12 -7 -30.5 -13t-40 -10t-44.5 -6.5t-44 -2.5q-52 0 -93 15.5t-70 44t-45 68t-19 87.5q-2 29 -1.5 63t2.5 57
q4 48 22 86.5t47 65.5t67.5 41t84.5 14q49 0 89 -16t68 -45t43 -68.5t15 -87.5v-30zM418 296q11 0 13 12q2 34 -6.5 62t-26.5 48t-44 31t-58 11q-74 0 -110 -44.5t-34 -119.5h266zM360 724q10 4 17 4q14 0 24 -10t10 -24q0 -20 -19 -30l-135 -70q-8 -5 -18 -5
q-14 0 -23.5 10t-9.5 24q0 21 18 31z" />
    <glyph glyph-name="ecircumflex" unicode="&#xea;" horiz-adv-x="572" 
d="M510 286q0 -26 -14 -42t-45 -16h-299v-16q0 -71 41.5 -109t107.5 -38q27 0 57.5 7t64.5 19q13 5 24 4t18.5 -6t11.5 -13t4 -17q0 -10 -4.5 -19t-17.5 -17q-12 -7 -30.5 -13t-40 -10t-44.5 -6.5t-44 -2.5q-52 0 -93 15.5t-70 44t-45 68t-19 87.5q-2 29 -1.5 63t2.5 57
q4 48 22 86.5t47 65.5t67.5 41t84.5 14q49 0 89 -16t68 -45t43 -68.5t15 -87.5v-30zM418 296q11 0 13 12q2 34 -6.5 62t-26.5 48t-44 31t-58 11q-74 0 -110 -44.5t-34 -119.5h266zM411 651q6 -5 10.5 -12t4.5 -16q0 -14 -10 -24t-24 -10q-12 0 -23 8l-81 61l-81 -61
q-11 -8 -22 -8q-15 0 -24.5 10t-9.5 24q0 9 4 16t10 12l93 70q8 5 15 8.5t15 3.5t14.5 -3.5t14.5 -8.5z" />
    <glyph glyph-name="ecaron" unicode="&#x11b;" horiz-adv-x="572" 
d="M510 286q0 -26 -14 -42t-45 -16h-299v-16q0 -71 41.5 -109t107.5 -38q27 0 57.5 7t64.5 19q13 5 24 4t18.5 -6t11.5 -13t4 -17q0 -10 -4.5 -19t-17.5 -17q-12 -7 -30.5 -13t-40 -10t-44.5 -6.5t-44 -2.5q-52 0 -93 15.5t-70 44t-45 68t-19 87.5q-2 29 -1.5 63t2.5 57
q4 48 22 86.5t47 65.5t67.5 41t84.5 14q49 0 89 -16t68 -45t43 -68.5t15 -87.5v-30zM418 296q11 0 13 12q2 34 -6.5 62t-26.5 48t-44 31t-58 11q-74 0 -110 -44.5t-34 -119.5h266zM317 600q-8 -5 -14.5 -8.5t-14.5 -3.5t-15 3.5t-15 8.5l-93 70q-14 10 -14 28q0 14 9.5 24
t24.5 10q11 0 22 -8l81 -61l81 61q11 8 23 8q14 0 24 -10t10 -24q0 -9 -4.5 -16t-10.5 -12z" />
    <glyph glyph-name="edieresis" unicode="&#xeb;" horiz-adv-x="572" 
d="M510 286q0 -26 -14 -42t-45 -16h-299v-16q0 -71 41.5 -109t107.5 -38q27 0 57.5 7t64.5 19q13 5 24 4t18.5 -6t11.5 -13t4 -17q0 -10 -4.5 -19t-17.5 -17q-12 -7 -30.5 -13t-40 -10t-44.5 -6.5t-44 -2.5q-52 0 -93 15.5t-70 44t-45 68t-19 87.5q-2 29 -1.5 63t2.5 57
q4 48 22 86.5t47 65.5t67.5 41t84.5 14q49 0 89 -16t68 -45t43 -68.5t15 -87.5v-30zM418 296q11 0 13 12q2 34 -6.5 62t-26.5 48t-44 31t-58 11q-74 0 -110 -44.5t-34 -119.5h266zM214 690q19 0 32 -12.5t13 -32.5q0 -19 -13 -32t-32 -13q-20 0 -32.5 13t-12.5 32
q0 20 12.5 32.5t32.5 12.5zM372 690q20 0 32.5 -12.5t12.5 -32.5q0 -19 -12.5 -32t-32.5 -13q-19 0 -32 13t-13 32q0 20 13 32.5t32 12.5z" />
    <glyph glyph-name="emacron" unicode="&#x113;" horiz-adv-x="572" 
d="M510 286q0 -26 -14 -42t-45 -16h-299v-16q0 -71 41.5 -109t107.5 -38q27 0 57.5 7t64.5 19q13 5 24 4t18.5 -6t11.5 -13t4 -17q0 -10 -4.5 -19t-17.5 -17q-12 -7 -30.5 -13t-40 -10t-44.5 -6.5t-44 -2.5q-52 0 -93 15.5t-70 44t-45 68t-19 87.5q-2 29 -1.5 63t2.5 57
q4 48 22 86.5t47 65.5t67.5 41t84.5 14q49 0 89 -16t68 -45t43 -68.5t15 -87.5v-30zM418 296q11 0 13 12q2 34 -6.5 62t-26.5 48t-44 31t-58 11q-74 0 -110 -44.5t-34 -119.5h266zM369 679q14 0 24 -10t10 -24q0 -15 -10 -25t-24 -10h-164q-15 0 -25 10t-10 25q0 14 10 24
t25 10h164z" />
    <glyph glyph-name="edotaccent" unicode="&#x117;" horiz-adv-x="572" 
d="M510 286q0 -26 -14 -42t-45 -16h-299v-16q0 -71 41.5 -109t107.5 -38q27 0 57.5 7t64.5 19q13 5 24 4t18.5 -6t11.5 -13t4 -17q0 -10 -4.5 -19t-17.5 -17q-12 -7 -30.5 -13t-40 -10t-44.5 -6.5t-44 -2.5q-52 0 -93 15.5t-70 44t-45 68t-19 87.5q-2 29 -1.5 63t2.5 57
q4 48 22 86.5t47 65.5t67.5 41t84.5 14q49 0 89 -16t68 -45t43 -68.5t15 -87.5v-30zM418 296q11 0 13 12q2 34 -6.5 62t-26.5 48t-44 31t-58 11q-74 0 -110 -44.5t-34 -119.5h266zM287 689q19 0 32 -12.5t13 -32.5q0 -19 -13 -32t-32 -13t-32 13t-13 32q0 20 13 32.5
t32 12.5z" />
    <glyph glyph-name="gbreve" unicode="&#x11f;" horiz-adv-x="600" 
d="M508 46q0 -57 -17 -100.5t-47 -72.5t-71 -44t-90 -15q-52 0 -92 13t-66 29q-20 12 -27.5 22t-7.5 21t8 24.5t30 13.5q13 0 23.5 -5.5t19.5 -10.5q23 -13 48.5 -22.5t63.5 -9.5q28 0 54 9t46 26.5t32 43.5t12 61v10q-27 -13 -65 -23.5t-82 -10.5q-94 0 -147.5 54
t-59.5 145q-1 11 -1.5 28t-0.5 35t0.5 35t1.5 28q3 44 18.5 81.5t43 64.5t66.5 42t90 15q34 0 66 -6.5t58.5 -15.5t46.5 -18.5t29 -16.5t13 -15t4 -25v-390zM294 456q-71 0 -103 -36t-37 -95q-1 -12 -1.5 -28t-0.5 -32t0.5 -31t1.5 -25q5 -62 35.5 -95.5t98.5 -33.5
q26 0 48.5 4.5t40.5 11t31 13.5t19 12v299q-1 1 -11.5 7t-28 12.5t-41.5 11.5t-52 5zM299 655q20 0 36 12.5t21 32.5q3 11 12.5 17.5t20.5 6.5q14 0 24 -10t10 -24q0 -6 -3 -15q-12 -36 -44 -61t-77 -25t-77 25t-44 61q-3 9 -3 15q0 14 10 24t24 10q11 0 20 -6.5t13 -17.5
q5 -20 21 -32.5t36 -12.5z" />
    <glyph glyph-name="gdotaccent" unicode="&#x121;" horiz-adv-x="600" 
d="M508 46q0 -57 -17 -100.5t-47 -72.5t-71 -44t-90 -15q-52 0 -92 13t-66 29q-20 12 -27.5 22t-7.5 21t8 24.5t30 13.5q13 0 23.5 -5.5t19.5 -10.5q23 -13 48.5 -22.5t63.5 -9.5q28 0 54 9t46 26.5t32 43.5t12 61v10q-27 -13 -65 -23.5t-82 -10.5q-94 0 -147.5 54
t-59.5 145q-1 11 -1.5 28t-0.5 35t0.5 35t1.5 28q3 44 18.5 81.5t43 64.5t66.5 42t90 15q34 0 66 -6.5t58.5 -15.5t46.5 -18.5t29 -16.5t13 -15t4 -25v-390zM294 456q-71 0 -103 -36t-37 -95q-1 -12 -1.5 -28t-0.5 -32t0.5 -31t1.5 -25q5 -62 35.5 -95.5t98.5 -33.5
q26 0 48.5 4.5t40.5 11t31 13.5t19 12v299q-1 1 -11.5 7t-28 12.5t-41.5 11.5t-52 5zM299 690q19 0 32 -12.5t13 -32.5q0 -19 -13 -32t-32 -13t-32 13t-13 32q0 20 13 32.5t32 12.5z" />
    <glyph glyph-name="gcommaaccent" unicode="&#x123;" horiz-adv-x="600" 
d="M508 46q0 -57 -17 -100.5t-47 -72.5t-71 -44t-90 -15q-52 0 -92 13t-66 29q-20 12 -27.5 22t-7.5 21t8 24.5t30 13.5q13 0 23.5 -5.5t19.5 -10.5q23 -13 48.5 -22.5t63.5 -9.5q28 0 54 9t46 26.5t32 43.5t12 61v10q-27 -13 -65 -23.5t-82 -10.5q-94 0 -147.5 54
t-59.5 145q-1 11 -1.5 28t-0.5 35t0.5 35t1.5 28q3 44 18.5 81.5t43 64.5t66.5 42t90 15q34 0 66 -6.5t58.5 -15.5t46.5 -18.5t29 -16.5t13 -15t4 -25v-390zM294 456q-71 0 -103 -36t-37 -95q-1 -12 -1.5 -28t-0.5 -32t0.5 -31t1.5 -25q5 -62 35.5 -95.5t98.5 -33.5
q26 0 48.5 4.5t40.5 11t31 13.5t19 12v299q-1 1 -11.5 7t-28 12.5t-41.5 11.5t-52 5zM360 706q0 -19 -5 -43.5t-20 -52.5q-7 -12 -18 -20t-25 -8q-17 0 -27 11.5t-10 25.5q0 10 3.5 17l8 16t8 21.5t3.5 35.5v26q0 17 12 28.5t29 11.5t29 -11.5t12 -28.5v-29z" />
    <glyph glyph-name="igrave" unicode="&#xec;" horiz-adv-x="273" 
d="M194 654q19 -10 19 -31q0 -14 -10 -24t-24 -10q-8 0 -20 6l-133 69q-18 10 -18 30q0 14 9.5 24t23.5 10q8 0 18 -4zM136 526q17 0 29 -12.5t12 -29.5v-447q0 -17 -11.5 -29t-29.5 -12q-17 0 -28.5 12t-11.5 29v447q0 17 11.5 29.5t28.5 12.5z" />
    <glyph glyph-name="iacute" unicode="&#xed;" horiz-adv-x="273" 
d="M219 724q10 4 17 4q14 0 24 -10t10 -24q0 -20 -19 -30l-135 -70q-8 -5 -18 -5q-14 0 -23.5 10t-9.5 24q0 21 18 31zM136 526q17 0 29 -12.5t12 -29.5v-447q0 -17 -11.5 -29t-29.5 -12q-17 0 -28.5 12t-11.5 29v447q0 17 11.5 29.5t28.5 12.5z" />
    <glyph glyph-name="icircumflex" unicode="&#xee;" horiz-adv-x="273" 
d="M136 526q17 0 29 -12.5t12 -29.5v-447q0 -17 -11.5 -29t-29.5 -12q-17 0 -28.5 12t-11.5 29v447q0 17 11.5 29.5t28.5 12.5zM265 651q6 -5 10.5 -12t4.5 -16q0 -14 -10 -24t-24 -10q-12 0 -23 8l-81 61l-81 -61q-11 -8 -22 -8q-15 0 -24.5 10t-9.5 24q0 9 4 16t10 12
l93 70q8 5 15 8.5t15 3.5t14.5 -3.5t14.5 -8.5z" />
    <glyph glyph-name="idieresis" unicode="&#xef;" horiz-adv-x="273" 
d="M63 690q19 0 32 -12.5t13 -32.5q0 -19 -13 -32t-32 -13q-20 0 -32.5 13t-12.5 32q0 20 12.5 32.5t32.5 12.5zM221 690q20 0 32.5 -12.5t12.5 -32.5q0 -19 -12.5 -32t-32.5 -13q-19 0 -32 13t-13 32q0 20 13 32.5t32 12.5zM136 526q17 0 29 -12.5t12 -29.5v-447
q0 -17 -11.5 -29t-29.5 -12q-17 0 -28.5 12t-11.5 29v447q0 17 11.5 29.5t28.5 12.5z" />
    <glyph glyph-name="imacron" unicode="&#x12b;" horiz-adv-x="273" 
d="M221 679q14 0 24 -10t10 -24q0 -15 -10 -25t-24 -10h-164q-15 0 -25 10t-10 25q0 14 10 24t25 10h164zM136 526q17 0 29 -12.5t12 -29.5v-447q0 -17 -11.5 -29t-29.5 -12q-17 0 -28.5 12t-11.5 29v447q0 17 11.5 29.5t28.5 12.5z" />
    <glyph glyph-name="kcommaaccent" unicode="&#x137;" horiz-adv-x="531" 
d="M463 528q17 0 28 -12t11 -28q0 -17 -12 -29l-197 -189l200 -203q12 -13 13 -29t-11 -30q-11 -13 -29 -12t-29 13l-191 196q-15 15 -26.5 19.5t-28.5 4.5h-18v-191q0 -18 -11.5 -30t-29.5 -12q-17 0 -28.5 12.5t-11.5 29.5v631q0 17 11.5 29t28.5 12t29 -12t12 -29v-361
h17q17 0 29 4t27 19l187 184q12 13 30 13zM326 -99q0 -19 -5 -43.5t-20 -52.5q-7 -12 -18 -20t-25 -8q-17 0 -27 11.5t-10 25.5q0 10 3.5 17l8 16t8 21.5t3.5 35.5v26q0 17 12 28.5t29 11.5t29 -11.5t12 -28.5v-29z" />
    <glyph glyph-name="lacute" unicode="&#x13a;" horiz-adv-x="273" 
d="M136 710q17 0 29 -12t12 -29v-631q0 -18 -11.5 -30t-29.5 -12q-17 0 -28.5 12t-11.5 30v631q0 17 11.5 29t28.5 12zM191 888q10 4 17 4q14 0 24 -10t10 -24q0 -20 -19 -30l-135 -70q-8 -5 -18 -5q-14 0 -23.5 10t-9.5 24q0 21 18 31z" />
    <glyph glyph-name="lcaron" unicode="&#x13e;" horiz-adv-x="308" 
d="M132 710q17 0 29 -12t12 -29v-631q0 -18 -11.5 -30t-29.5 -12q-17 0 -28.5 12t-11.5 30v631q0 17 11.5 29t28.5 12zM319 575q-7 -11 -16.5 -18t-21.5 -7q-17 0 -27.5 10.5t-10.5 24.5q0 9 4 17t9.5 18t9.5 23t4 31v22q0 17 11 28.5t27 11.5q17 0 28 -11.5t11 -28.5v-20
q0 -20 -6.5 -47.5t-21.5 -53.5z" />
    <glyph glyph-name="lcommaaccent" unicode="&#x13c;" horiz-adv-x="296" 
d="M159 710q17 0 29 -12t12 -29v-631q0 -18 -11.5 -30t-29.5 -12q-17 0 -28.5 12t-11.5 30v631q0 17 11.5 29t28.5 12zM199 -99q0 -19 -5 -43.5t-20 -52.5q-7 -12 -18 -20t-25 -8q-17 0 -27 11.5t-10 25.5q0 10 3.5 17l8 16t8 21.5t3.5 35.5v26q0 17 12 28.5t29 11.5
t29 -11.5t12 -28.5v-29z" />
    <glyph glyph-name="nacute" unicode="&#x144;" 
d="M525 38q0 -18 -11 -30t-29 -12q-17 0 -29 12t-12 30v287q0 34 -11 59t-29 41t-42.5 23.5t-51.5 7.5q-42 0 -80 -10.5t-58 -22.5v-385q0 -18 -11.5 -30t-28.5 -12t-29 12t-12 30v405q0 14 4.5 21.5t13.5 14.5q10 8 29 17.5t44.5 17.5t58 13.5t71.5 5.5q106 0 159.5 -52.5
t53.5 -151.5v-291zM360 724q10 4 17 4q14 0 24 -10t10 -24q0 -20 -19 -30l-135 -70q-8 -5 -18 -5q-14 0 -23.5 10t-9.5 24q0 21 18 31z" />
    <glyph glyph-name="ncaron" unicode="&#x148;" 
d="M525 38q0 -18 -11 -30t-29 -12q-17 0 -29 12t-12 30v287q0 34 -11 59t-29 41t-42.5 23.5t-51.5 7.5q-42 0 -80 -10.5t-58 -22.5v-385q0 -18 -11.5 -30t-28.5 -12t-29 12t-12 30v405q0 14 4.5 21.5t13.5 14.5q10 8 29 17.5t44.5 17.5t58 13.5t71.5 5.5q106 0 159.5 -52.5
t53.5 -151.5v-291zM332 601q-8 -5 -14.5 -8.5t-14.5 -3.5t-15 3.5t-15 8.5l-93 70q-14 10 -14 28q0 14 9.5 24t24.5 10q11 0 22 -8l81 -61l81 61q11 8 23 8q14 0 24 -10t10 -24q0 -9 -4.5 -16t-10.5 -12z" />
    <glyph glyph-name="ntilde" unicode="&#xf1;" 
d="M525 38q0 -18 -11 -30t-29 -12q-17 0 -29 12t-12 30v287q0 34 -11 59t-29 41t-42.5 23.5t-51.5 7.5q-42 0 -80 -10.5t-58 -22.5v-385q0 -18 -11.5 -30t-28.5 -12t-29 12t-12 30v405q0 14 4.5 21.5t13.5 14.5q10 8 29 17.5t44.5 17.5t58 13.5t71.5 5.5q106 0 159.5 -52.5
t53.5 -151.5v-291zM356 661q10 0 17 4t13.5 9.5t13 9.5t15.5 4q15 0 24 -10t9 -24q0 -9 -4 -15.5t-10 -11.5q-17 -15 -36.5 -24.5t-37.5 -9.5t-33 5.5t-29 12.5t-26 12.5t-24 5.5q-10 0 -17 -4t-13.5 -9.5t-13 -9.5t-15.5 -4q-15 0 -24 10t-9 24q0 9 4.5 15.5t9.5 11.5
q17 15 36.5 24.5t38.5 9.5q18 0 33.5 -5.5t28.5 -12.5t25 -12.5t24 -5.5z" />
    <glyph glyph-name="ncommaaccent" unicode="&#x146;" 
d="M525 38q0 -18 -11 -30t-29 -12q-17 0 -29 12t-12 30v287q0 34 -11 59t-29 41t-42.5 23.5t-51.5 7.5q-42 0 -80 -10.5t-58 -22.5v-385q0 -18 -11.5 -30t-28.5 -12t-29 12t-12 30v405q0 14 4.5 21.5t13.5 14.5q10 8 29 17.5t44.5 17.5t58 13.5t71.5 5.5q106 0 159.5 -52.5
t53.5 -151.5v-291zM347 -99q0 -19 -5 -43.5t-20 -52.5q-7 -12 -18 -20t-25 -8q-17 0 -27 11.5t-10 25.5q0 10 3.5 17l8 16t8 21.5t3.5 35.5v26q0 17 12 28.5t29 11.5t29 -11.5t12 -28.5v-29z" />
    <glyph glyph-name="ograve" unicode="&#xf2;" horiz-adv-x="592" 
d="M296 533q46 0 86 -14.5t69.5 -40.5t47 -62.5t20.5 -80.5q2 -31 2 -71.5t-2 -70.5q-3 -44 -20.5 -81t-47 -64t-69.5 -42t-86 -15t-85.5 15t-69.5 42t-47.5 64t-20.5 81q-1 15 -1.5 33.5t-0.5 37.5t0.5 37.5t1.5 33.5q3 44 20.5 80.5t47.5 62.5t69.5 40.5t85.5 14.5z
M296 457q-63 0 -100.5 -36t-41.5 -92q-1 -13 -1.5 -30.5t-0.5 -35.5t0.5 -35t1.5 -30q5 -59 43 -95t99 -36t99 36t43 95q1 13 1 30v35v35.5t-1 30.5q-4 56 -41.5 92t-100.5 36zM375 654q19 -10 19 -31q0 -14 -10 -24t-24 -10q-8 0 -20 6l-133 69q-18 10 -18 30q0 14 9.5 24
t23.5 10q8 0 18 -4z" />
    <glyph glyph-name="oacute" unicode="&#xf3;" horiz-adv-x="592" 
d="M296 533q46 0 86 -14.5t69.5 -40.5t47 -62.5t20.5 -80.5q2 -31 2 -71.5t-2 -70.5q-3 -44 -20.5 -81t-47 -64t-69.5 -42t-86 -15t-85.5 15t-69.5 42t-47.5 64t-20.5 81q-1 15 -1.5 33.5t-0.5 37.5t0.5 37.5t1.5 33.5q3 44 20.5 80.5t47.5 62.5t69.5 40.5t85.5 14.5z
M296 457q-63 0 -100.5 -36t-41.5 -92q-1 -13 -1.5 -30.5t-0.5 -35.5t0.5 -35t1.5 -30q5 -59 43 -95t99 -36t99 36t43 95q1 13 1 30v35v35.5t-1 30.5q-4 56 -41.5 92t-100.5 36zM350 724q10 4 17 4q14 0 24 -10t10 -24q0 -20 -19 -30l-135 -70q-8 -5 -18 -5q-14 0 -23.5 10
t-9.5 24q0 21 18 31z" />
    <glyph glyph-name="ocircumflex" unicode="&#xf4;" horiz-adv-x="592" 
d="M296 533q46 0 86 -14.5t69.5 -40.5t47 -62.5t20.5 -80.5q2 -31 2 -71.5t-2 -70.5q-3 -44 -20.5 -81t-47 -64t-69.5 -42t-86 -15t-85.5 15t-69.5 42t-47.5 64t-20.5 81q-1 15 -1.5 33.5t-0.5 37.5t0.5 37.5t1.5 33.5q3 44 20.5 80.5t47.5 62.5t69.5 40.5t85.5 14.5z
M296 457q-63 0 -100.5 -36t-41.5 -92q-1 -13 -1.5 -30.5t-0.5 -35.5t0.5 -35t1.5 -30q5 -59 43 -95t99 -36t99 36t43 95q1 13 1 30v35v35.5t-1 30.5q-4 56 -41.5 92t-100.5 36zM419 650q6 -5 10.5 -12t4.5 -16q0 -14 -10 -24t-24 -10q-12 0 -23 8l-81 61l-81 -61
q-11 -8 -22 -8q-15 0 -24.5 10t-9.5 24q0 9 4 16t10 12l93 70q8 5 15 8.5t15 3.5t14.5 -3.5t14.5 -8.5z" />
    <glyph glyph-name="otilde" unicode="&#xf5;" horiz-adv-x="592" 
d="M296 533q46 0 86 -14.5t69.5 -40.5t47 -62.5t20.5 -80.5q2 -31 2 -71.5t-2 -70.5q-3 -44 -20.5 -81t-47 -64t-69.5 -42t-86 -15t-85.5 15t-69.5 42t-47.5 64t-20.5 81q-1 15 -1.5 33.5t-0.5 37.5t0.5 37.5t1.5 33.5q3 44 20.5 80.5t47.5 62.5t69.5 40.5t85.5 14.5z
M296 457q-63 0 -100.5 -36t-41.5 -92q-1 -13 -1.5 -30.5t-0.5 -35.5t0.5 -35t1.5 -30q5 -59 43 -95t99 -36t99 36t43 95q1 13 1 30v35v35.5t-1 30.5q-4 56 -41.5 92t-100.5 36zM349 661q10 0 17 4t13.5 9.5t13 9.5t15.5 4q15 0 24 -10t9 -24q0 -9 -4 -15.5t-10 -11.5
q-17 -15 -36.5 -24.5t-37.5 -9.5t-33 5.5t-29 12.5t-26 12.5t-24 5.5q-10 0 -17 -4t-13.5 -9.5t-13 -9.5t-15.5 -4q-15 0 -24 10t-9 24q0 9 4.5 15.5t9.5 11.5q17 15 36.5 24.5t38.5 9.5q18 0 33.5 -5.5t28.5 -12.5t25 -12.5t24 -5.5z" />
    <glyph glyph-name="odieresis" unicode="&#xf6;" horiz-adv-x="592" 
d="M296 533q46 0 86 -14.5t69.5 -40.5t47 -62.5t20.5 -80.5q2 -31 2 -71.5t-2 -70.5q-3 -44 -20.5 -81t-47 -64t-69.5 -42t-86 -15t-85.5 15t-69.5 42t-47.5 64t-20.5 81q-1 15 -1.5 33.5t-0.5 37.5t0.5 37.5t1.5 33.5q3 44 20.5 80.5t47.5 62.5t69.5 40.5t85.5 14.5z
M296 457q-63 0 -100.5 -36t-41.5 -92q-1 -13 -1.5 -30.5t-0.5 -35.5t0.5 -35t1.5 -30q5 -59 43 -95t99 -36t99 36t43 95q1 13 1 30v35v35.5t-1 30.5q-4 56 -41.5 92t-100.5 36zM217 690q19 0 32 -12.5t13 -32.5q0 -19 -13 -32t-32 -13q-20 0 -32.5 13t-12.5 32
q0 20 12.5 32.5t32.5 12.5zM375 690q20 0 32.5 -12.5t12.5 -32.5q0 -19 -12.5 -32t-32.5 -13q-19 0 -32 13t-13 32q0 20 13 32.5t32 12.5z" />
    <glyph glyph-name="omacron" unicode="&#x14d;" horiz-adv-x="592" 
d="M296 533q46 0 86 -14.5t69.5 -40.5t47 -62.5t20.5 -80.5q2 -31 2 -71.5t-2 -70.5q-3 -44 -20.5 -81t-47 -64t-69.5 -42t-86 -15t-85.5 15t-69.5 42t-47.5 64t-20.5 81q-1 15 -1.5 33.5t-0.5 37.5t0.5 37.5t1.5 33.5q3 44 20.5 80.5t47.5 62.5t69.5 40.5t85.5 14.5z
M296 457q-63 0 -100.5 -36t-41.5 -92q-1 -13 -1.5 -30.5t-0.5 -35.5t0.5 -35t1.5 -30q5 -59 43 -95t99 -36t99 36t43 95q1 13 1 30v35v35.5t-1 30.5q-4 56 -41.5 92t-100.5 36zM378 679q14 0 24 -10t10 -24q0 -15 -10 -25t-24 -10h-164q-15 0 -25 10t-10 25q0 14 10 24
t25 10h164z" />
    <glyph glyph-name="ohungarumlaut" unicode="&#x151;" horiz-adv-x="596" 
d="M296 533q46 0 86 -14.5t69.5 -40.5t47 -62.5t20.5 -80.5q2 -31 2 -71.5t-2 -70.5q-3 -44 -20.5 -81t-47 -64t-69.5 -42t-86 -15t-85.5 15t-69.5 42t-47.5 64t-20.5 81q-1 15 -1.5 33.5t-0.5 37.5t0.5 37.5t1.5 33.5q3 44 20.5 80.5t47.5 62.5t69.5 40.5t85.5 14.5z
M296 457q-63 0 -100.5 -36t-41.5 -92q-1 -13 -1.5 -30.5t-0.5 -35.5t0.5 -35t1.5 -30q5 -59 43 -95t99 -36t99 36t43 95q1 13 1 30v35v35.5t-1 30.5q-4 56 -41.5 92t-100.5 36zM221 598q-11 -9 -23 -9q-14 0 -24 10t-10 24q0 16 10 25l100 92q11 9 22 9q14 0 24.5 -10
t10.5 -25t-11 -25zM370 598q-11 -9 -23 -9q-14 0 -24.5 10t-10.5 24q0 16 11 25l100 92q9 9 22 9q14 0 24.5 -10t10.5 -25t-11 -25z" />
    <glyph glyph-name="racute" unicode="&#x155;" horiz-adv-x="377" 
d="M335 522q32 -8 32 -38q0 -12 -9.5 -24.5t-30.5 -12.5q-15 0 -34 4t-45 4q-42 -1 -61.5 -22.5t-19.5 -67.5v-328q0 -17 -12 -29t-29 -12t-29 12t-12 29v337q0 74 42 116.5t121 42.5q26 0 49.5 -3t37.5 -8zM282 723q10 4 17 4q14 0 24 -10t10 -24q0 -20 -19 -30l-135 -70
q-8 -5 -18 -5q-14 0 -23.5 10t-9.5 24q0 21 18 31z" />
    <glyph glyph-name="rcaron" unicode="&#x159;" horiz-adv-x="377" 
d="M335 522q32 -8 32 -38q0 -12 -9.5 -24.5t-30.5 -12.5q-15 0 -34 4t-45 4q-42 -1 -61.5 -22.5t-19.5 -67.5v-328q0 -17 -12 -29t-29 -12t-29 12t-12 29v337q0 74 42 116.5t121 42.5q26 0 49.5 -3t37.5 -8zM252 600q-8 -5 -14.5 -8.5t-14.5 -3.5t-15 3.5t-15 8.5l-93 70
q-14 10 -14 28q0 14 9.5 24t24.5 10q11 0 22 -8l81 -61l81 61q11 8 23 8q14 0 24 -10t10 -24q0 -9 -4.5 -16t-10.5 -12z" />
    <glyph glyph-name="rcommaaccent" unicode="&#x157;" horiz-adv-x="377" 
d="M335 522q32 -8 32 -38q0 -12 -9.5 -24.5t-30.5 -12.5q-15 0 -34 4t-45 4q-42 -1 -61.5 -22.5t-19.5 -67.5v-328q0 -17 -12 -29t-29 -12t-29 12t-12 29v337q0 74 42 116.5t121 42.5q26 0 49.5 -3t37.5 -8zM169 -99q0 -19 -5 -43.5t-20 -52.5q-7 -12 -18 -20t-25 -8
q-17 0 -27 11.5t-10 25.5q0 10 3.5 17l8 16t8 21.5t3.5 35.5v26q0 17 12 28.5t29 11.5t29 -11.5t12 -28.5v-29z" />
    <glyph glyph-name="sacute" unicode="&#x15b;" horiz-adv-x="489" 
d="M313 292q133 -34 133 -141q0 -37 -14 -66.5t-39.5 -50.5t-61.5 -32t-79 -11q-110 0 -178 56q-12 10 -14 26t6 28q10 13 25 16t31 -8q13 -9 25.5 -17.5t28.5 -14.5t36 -9.5t47 -3.5q51 0 79 24t28 59q0 26 -18.5 43.5t-61.5 28.5q-13 3 -20.5 4.5t-14 3t-15 3.5t-22.5 6
q-70 18 -105.5 51.5t-35.5 90.5q0 36 13.5 64.5t38.5 48.5t59.5 31t75.5 11q43 0 81.5 -12.5t61.5 -30.5q15 -12 14.5 -29t-9.5 -27q-10 -11 -25 -12t-29 7q-24 14 -47.5 22t-49.5 8q-53 0 -79 -20.5t-26 -57.5q0 -24 16.5 -40.5t61.5 -28.5q24 -7 47.5 -12t35.5 -8z
M306 724q10 4 17 4q14 0 24 -10t10 -24q0 -20 -19 -30l-135 -70q-8 -5 -18 -5q-14 0 -23.5 10t-9.5 24q0 21 18 31z" />
    <glyph glyph-name="scaron" unicode="&#x161;" horiz-adv-x="489" 
d="M313 292q133 -34 133 -141q0 -37 -14 -66.5t-39.5 -50.5t-61.5 -32t-79 -11q-110 0 -178 56q-12 10 -14 26t6 28q10 13 25 16t31 -8q13 -9 25.5 -17.5t28.5 -14.5t36 -9.5t47 -3.5q51 0 79 24t28 59q0 26 -18.5 43.5t-61.5 28.5q-13 3 -20.5 4.5t-14 3t-15 3.5t-22.5 6
q-70 18 -105.5 51.5t-35.5 90.5q0 36 13.5 64.5t38.5 48.5t59.5 31t75.5 11q43 0 81.5 -12.5t61.5 -30.5q15 -12 14.5 -29t-9.5 -27q-10 -11 -25 -12t-29 7q-24 14 -47.5 22t-49.5 8q-53 0 -79 -20.5t-26 -57.5q0 -24 16.5 -40.5t61.5 -28.5q24 -7 47.5 -12t35.5 -8z
M273 589q-8 -5 -14.5 -8.5t-14.5 -3.5t-15 3.5t-15 8.5l-93 70q-14 10 -14 28q0 14 9.5 24t24.5 10q11 0 22 -8l81 -61l81 61q11 8 23 8q14 0 24 -10t10 -24q0 -9 -4.5 -16t-10.5 -12z" />
    <glyph glyph-name="scommaaccent" unicode="&#x219;" horiz-adv-x="489" 
d="M313 292q133 -34 133 -141q0 -37 -14 -66.5t-39.5 -50.5t-61.5 -32t-79 -11q-110 0 -178 56q-12 10 -14 26t6 28q10 13 25 16t31 -8q13 -9 25.5 -17.5t28.5 -14.5t36 -9.5t47 -3.5q51 0 79 24t28 59q0 26 -18.5 43.5t-61.5 28.5q-13 3 -20.5 4.5t-14 3t-15 3.5t-22.5 6
q-70 18 -105.5 51.5t-35.5 90.5q0 36 13.5 64.5t38.5 48.5t59.5 31t75.5 11q43 0 81.5 -12.5t61.5 -30.5q15 -12 14.5 -29t-9.5 -27q-10 -11 -25 -12t-29 7q-24 14 -47.5 22t-49.5 8q-53 0 -79 -20.5t-26 -57.5q0 -24 16.5 -40.5t61.5 -28.5q24 -7 47.5 -12t35.5 -8z
M300 -99q0 -19 -5 -43.5t-20 -52.5q-7 -12 -18 -20t-25 -8q-17 0 -27 11.5t-10 25.5q0 10 3.5 17l8 16t8 21.5t3.5 35.5v26q0 17 12 28.5t29 11.5t29 -11.5t12 -28.5v-29z" />
    <glyph glyph-name="tcaron" unicode="&#x165;" horiz-adv-x="407" 
d="M343 8q-20 -8 -47 -12.5t-56 -4.5q-40 0 -69 12.5t-48 34.5t-28 52.5t-9 65.5v435q0 17 11.5 29t28.5 12t29 -12t12 -29v-82h151q15 0 26.5 -10.5t11.5 -26.5t-11.5 -26.5t-26.5 -10.5h-151v-282q0 -38 18 -62.5t59 -24.5q22 0 42 6.5t38 11.5q25 6 38.5 -6t13.5 -31
q0 -28 -33 -39zM290 575q-7 -11 -16.5 -18t-21.5 -7q-17 0 -27.5 10.5t-10.5 24.5q0 9 4 17t9.5 18t9.5 23t4 31v22q0 17 11 28.5t27 11.5q17 0 28 -11.5t11 -28.5v-20q0 -20 -6.5 -47.5t-21.5 -53.5z" />
    <glyph glyph-name="tcommaaccent" unicode="&#x163;" horiz-adv-x="409" 
d="M343 8q-20 -8 -47 -12.5t-56 -4.5q-40 0 -69 12.5t-48 34.5t-28 52.5t-9 65.5v435q0 17 11.5 29t28.5 12t29 -12t12 -29v-82h151q15 0 26.5 -10.5t11.5 -26.5t-11.5 -26.5t-26.5 -10.5h-151v-282q0 -38 18 -62.5t59 -24.5q22 0 42 6.5t38 11.5q25 6 38.5 -6t13.5 -31
q0 -28 -33 -39zM268 -99q0 -19 -5 -43.5t-20 -52.5q-7 -12 -18 -20t-25 -8q-17 0 -27 11.5t-10 25.5q0 10 3.5 17l8 16t8 21.5t3.5 35.5v26q0 17 12 28.5t29 11.5t29 -11.5t12 -28.5v-29z" />
    <glyph glyph-name="ugrave" unicode="&#xf9;" 
d="M84 484q0 17 11.5 29.5t28.5 12.5t29 -12.5t12 -29.5v-290q0 -59 35.5 -92.5t98.5 -33.5q48 0 82 11.5t56 25.5v379q0 17 11.5 29.5t28.5 12.5t29 -12.5t12 -29.5v-400q0 -22 -17 -33q-11 -8 -29.5 -18.5t-44 -19.5t-57.5 -15.5t-71 -6.5q-48 0 -87.5 13.5t-68 39.5
t-44 64t-15.5 87v289zM385 654q19 -10 19 -31q0 -14 -10 -24t-24 -10q-8 0 -20 6l-133 69q-18 10 -18 30q0 14 9.5 24t23.5 10q8 0 18 -4z" />
    <glyph glyph-name="uacute" unicode="&#xfa;" 
d="M84 484q0 17 11.5 29.5t28.5 12.5t29 -12.5t12 -29.5v-290q0 -59 35.5 -92.5t98.5 -33.5q48 0 82 11.5t56 25.5v379q0 17 11.5 29.5t28.5 12.5t29 -12.5t12 -29.5v-400q0 -22 -17 -33q-11 -8 -29.5 -18.5t-44 -19.5t-57.5 -15.5t-71 -6.5q-48 0 -87.5 13.5t-68 39.5
t-44 64t-15.5 87v289zM362 724q10 4 17 4q14 0 24 -10t10 -24q0 -20 -19 -30l-135 -70q-8 -5 -18 -5q-14 0 -23.5 10t-9.5 24q0 21 18 31z" />
    <glyph glyph-name="ucircumflex" unicode="&#xfb;" 
d="M84 484q0 17 11.5 29.5t28.5 12.5t29 -12.5t12 -29.5v-290q0 -59 35.5 -92.5t98.5 -33.5q48 0 82 11.5t56 25.5v379q0 17 11.5 29.5t28.5 12.5t29 -12.5t12 -29.5v-400q0 -22 -17 -33q-11 -8 -29.5 -18.5t-44 -19.5t-57.5 -15.5t-71 -6.5q-48 0 -87.5 13.5t-68 39.5
t-44 64t-15.5 87v289zM428 651q6 -5 10.5 -12t4.5 -16q0 -14 -10 -24t-24 -10q-12 0 -23 8l-81 61l-81 -61q-11 -8 -22 -8q-15 0 -24.5 10t-9.5 24q0 9 4 16t10 12l93 70q8 5 15 8.5t15 3.5t14.5 -3.5t14.5 -8.5z" />
    <glyph glyph-name="udieresis" unicode="&#xfc;" 
d="M84 484q0 17 11.5 29.5t28.5 12.5t29 -12.5t12 -29.5v-290q0 -59 35.5 -92.5t98.5 -33.5q48 0 82 11.5t56 25.5v379q0 17 11.5 29.5t28.5 12.5t29 -12.5t12 -29.5v-400q0 -22 -17 -33q-11 -8 -29.5 -18.5t-44 -19.5t-57.5 -15.5t-71 -6.5q-48 0 -87.5 13.5t-68 39.5
t-44 64t-15.5 87v289zM227 690q19 0 32 -12.5t13 -32.5q0 -19 -13 -32t-32 -13q-20 0 -32.5 13t-12.5 32q0 20 12.5 32.5t32.5 12.5zM385 690q20 0 32.5 -12.5t12.5 -32.5q0 -19 -12.5 -32t-32.5 -13q-19 0 -32 13t-13 32q0 20 13 32.5t32 12.5z" />
    <glyph glyph-name="umacron" unicode="&#x16b;" 
d="M84 484q0 17 11.5 29.5t28.5 12.5t29 -12.5t12 -29.5v-290q0 -59 35.5 -92.5t98.5 -33.5q48 0 82 11.5t56 25.5v379q0 17 11.5 29.5t28.5 12.5t29 -12.5t12 -29.5v-400q0 -22 -17 -33q-11 -8 -29.5 -18.5t-44 -19.5t-57.5 -15.5t-71 -6.5q-48 0 -87.5 13.5t-68 39.5
t-44 64t-15.5 87v289zM387 679q14 0 24 -10t10 -24q0 -15 -10 -25t-24 -10h-164q-15 0 -25 10t-10 25q0 14 10 24t25 10h164z" />
    <glyph glyph-name="uhungarumlaut" unicode="&#x171;" 
d="M84 484q0 17 11.5 29.5t28.5 12.5t29 -12.5t12 -29.5v-290q0 -59 35.5 -92.5t98.5 -33.5q48 0 82 11.5t56 25.5v379q0 17 11.5 29.5t28.5 12.5t29 -12.5t12 -29.5v-400q0 -22 -17 -33q-11 -8 -29.5 -18.5t-44 -19.5t-57.5 -15.5t-71 -6.5q-48 0 -87.5 13.5t-68 39.5
t-44 64t-15.5 87v289zM243 599q-11 -9 -23 -9q-14 0 -24 10t-10 24q0 16 10 25l100 92q11 9 22 9q14 0 24.5 -10t10.5 -25t-11 -25zM392 599q-11 -9 -23 -9q-14 0 -24.5 10t-10.5 24q0 16 11 25l100 92q9 9 22 9q14 0 24.5 -10t10.5 -25t-11 -25z" />
    <glyph glyph-name="wgrave" unicode="&#x1e81;" horiz-adv-x="812" 
d="M412 433q-1 4 -5 4q-5 0 -5 -4l-102 -382q-8 -32 -27 -47.5t-45 -15.5t-46.5 15t-28.5 47l-116 420q-6 23 5 40.5t32 17.5q13 0 23 -7.5t14 -21.5l113 -422q2 -5 5 -5t5 5l101 392q7 28 27 43.5t45 15.5q26 0 45 -15.5t27 -44.5l101 -391q2 -5 5 -5t5 5l109 419
q3 15 14 23.5t26 8.5q22 0 32.5 -18t4.5 -40l-117 -420q-9 -32 -28.5 -47t-45.5 -15t-46 15t-28 47zM466 654q19 -10 19 -31q0 -14 -10 -24t-24 -10q-8 0 -20 6l-133 69q-18 10 -18 30q0 14 9.5 24t23.5 10q8 0 18 -4z" />
    <glyph glyph-name="wacute" unicode="&#x1e83;" horiz-adv-x="812" 
d="M412 433q-1 4 -5 4q-5 0 -5 -4l-102 -382q-8 -32 -27 -47.5t-45 -15.5t-46.5 15t-28.5 47l-116 420q-6 23 5 40.5t32 17.5q13 0 23 -7.5t14 -21.5l113 -422q2 -5 5 -5t5 5l101 392q7 28 27 43.5t45 15.5q26 0 45 -15.5t27 -44.5l101 -391q2 -5 5 -5t5 5l109 419
q3 15 14 23.5t26 8.5q22 0 32.5 -18t4.5 -40l-117 -420q-9 -32 -28.5 -47t-45.5 -15t-46 15t-28 47zM461 724q10 4 17 4q14 0 24 -10t10 -24q0 -20 -19 -30l-135 -70q-8 -5 -18 -5q-14 0 -23.5 10t-9.5 24q0 21 18 31z" />
    <glyph glyph-name="wcircumflex" unicode="&#x175;" horiz-adv-x="812" 
d="M412 433q-1 4 -5 4q-5 0 -5 -4l-102 -382q-8 -32 -27 -47.5t-45 -15.5t-46.5 15t-28.5 47l-116 420q-6 23 5 40.5t32 17.5q13 0 23 -7.5t14 -21.5l113 -422q2 -5 5 -5t5 5l101 392q7 28 27 43.5t45 15.5q26 0 45 -15.5t27 -44.5l101 -391q2 -5 5 -5t5 5l109 419
q3 15 14 23.5t26 8.5q22 0 32.5 -18t4.5 -40l-117 -420q-9 -32 -28.5 -47t-45.5 -15t-46 15t-28 47zM529 650q6 -5 10.5 -12t4.5 -16q0 -14 -10 -24t-24 -10q-12 0 -23 8l-81 61l-81 -61q-11 -8 -22 -8q-15 0 -24.5 10t-9.5 24q0 9 4 16t10 12l93 70q8 5 15 8.5t15 3.5
t14.5 -3.5t14.5 -8.5z" />
    <glyph glyph-name="wdieresis" unicode="&#x1e85;" horiz-adv-x="812" 
d="M412 433q-1 4 -5 4q-5 0 -5 -4l-102 -382q-8 -32 -27 -47.5t-45 -15.5t-46.5 15t-28.5 47l-116 420q-6 23 5 40.5t32 17.5q13 0 23 -7.5t14 -21.5l113 -422q2 -5 5 -5t5 5l101 392q7 28 27 43.5t45 15.5q26 0 45 -15.5t27 -44.5l101 -391q2 -5 5 -5t5 5l109 419
q3 15 14 23.5t26 8.5q22 0 32.5 -18t4.5 -40l-117 -420q-9 -32 -28.5 -47t-45.5 -15t-46 15t-28 47zM327 690q19 0 32 -12.5t13 -32.5q0 -19 -13 -32t-32 -13q-20 0 -32.5 13t-12.5 32q0 20 12.5 32.5t32.5 12.5zM485 690q20 0 32.5 -12.5t12.5 -32.5q0 -19 -12.5 -32
t-32.5 -13q-19 0 -32 13t-13 32q0 20 13 32.5t32 12.5z" />
    <glyph glyph-name="ygrave" unicode="&#x1ef3;" horiz-adv-x="512" 
d="M27 467q-9 23 3 40.5t35 17.5q15 0 23.5 -8t14.5 -21l155 -357q4 -8 8 0l141 354q5 14 15 23t25 9q23 0 35 -18.5t3 -39.5l-188 -456q-29 -69 -67.5 -119.5t-71.5 -70.5q-20 -12 -36 -12t-28 10.5t-12 27.5q0 10 5 20t14 15q32 18 64 54.5t52 96.5zM312 654
q19 -10 19 -31q0 -14 -10 -24t-24 -10q-8 0 -20 6l-133 69q-18 10 -18 30q0 14 9.5 24t23.5 10q8 0 18 -4z" />
    <glyph glyph-name="yacute" unicode="&#xfd;" horiz-adv-x="512" 
d="M27 467q-9 23 3 40.5t35 17.5q15 0 23.5 -8t14.5 -21l155 -357q4 -8 8 0l141 354q5 14 15 23t25 9q23 0 35 -18.5t3 -39.5l-188 -456q-29 -69 -67.5 -119.5t-71.5 -70.5q-20 -12 -36 -12t-28 10.5t-12 27.5q0 10 5 20t14 15q32 18 64 54.5t52 96.5zM358 725q10 4 17 4
q14 0 24 -10t10 -24q0 -20 -19 -30l-135 -70q-8 -5 -18 -5q-14 0 -23.5 10t-9.5 24q0 21 18 31z" />
    <glyph glyph-name="ycircumflex" unicode="&#x177;" horiz-adv-x="512" 
d="M27 467q-9 23 3 40.5t35 17.5q15 0 23.5 -8t14.5 -21l155 -357q4 -8 8 0l141 354q5 14 15 23t25 9q23 0 35 -18.5t3 -39.5l-188 -456q-29 -69 -67.5 -119.5t-71.5 -70.5q-20 -12 -36 -12t-28 10.5t-12 27.5q0 10 5 20t14 15q32 18 64 54.5t52 96.5zM385 651
q6 -5 10.5 -12t4.5 -16q0 -14 -10 -24t-24 -10q-12 0 -23 8l-81 61l-81 -61q-11 -8 -22 -8q-15 0 -24.5 10t-9.5 24q0 9 4 16t10 12l93 70q8 5 15 8.5t15 3.5t14.5 -3.5t14.5 -8.5z" />
    <glyph glyph-name="ydieresis" unicode="&#xff;" horiz-adv-x="512" 
d="M27 467q-9 23 3 40.5t35 17.5q15 0 23.5 -8t14.5 -21l155 -357q4 -8 8 0l141 354q5 14 15 23t25 9q23 0 35 -18.5t3 -39.5l-188 -456q-29 -69 -67.5 -119.5t-71.5 -70.5q-20 -12 -36 -12t-28 10.5t-12 27.5q0 10 5 20t14 15q32 18 64 54.5t52 96.5zM183 690
q19 0 32 -12.5t13 -32.5q0 -19 -13 -32t-32 -13q-20 0 -32.5 13t-12.5 32q0 20 12.5 32.5t32.5 12.5zM341 690q20 0 32.5 -12.5t12.5 -32.5q0 -19 -12.5 -32t-32.5 -13q-19 0 -32 13t-13 32q0 20 13 32.5t32 12.5z" />
    <glyph glyph-name="zacute" unicode="&#x17a;" horiz-adv-x="491" 
d="M132 75h274q17 0 28.5 -10.5t11.5 -26.5q0 -17 -11.5 -27.5t-28.5 -10.5h-290q-33 0 -52 18t-19 44q0 14 5.5 27.5t14.5 24.5l297 326h-263q-16 0 -28 10t-12 27t12 27.5t28 10.5h278q32 0 50 -16.5t20 -41.5q3 -32 -24 -62zM320 724q10 4 17 4q14 0 24 -10t10 -24
q0 -20 -19 -30l-135 -70q-8 -5 -18 -5q-14 0 -23.5 10t-9.5 24q0 21 18 31z" />
    <glyph glyph-name="zcaron" unicode="&#x17e;" horiz-adv-x="491" 
d="M132 75h274q17 0 28.5 -10.5t11.5 -26.5q0 -17 -11.5 -27.5t-28.5 -10.5h-290q-33 0 -52 18t-19 44q0 14 5.5 27.5t14.5 24.5l297 326h-263q-16 0 -28 10t-12 27t12 27.5t28 10.5h278q32 0 50 -16.5t20 -41.5q3 -32 -24 -62zM268 601q-8 -5 -14.5 -8.5t-14.5 -3.5
t-15 3.5t-15 8.5l-93 70q-14 10 -14 28q0 14 9.5 24t24.5 10q11 0 22 -8l81 -61l81 61q11 8 23 8q14 0 24 -10t10 -24q0 -9 -4.5 -16t-10.5 -12z" />
    <glyph glyph-name="zdotaccent" unicode="&#x17c;" horiz-adv-x="491" 
d="M132 75h274q17 0 28.5 -10.5t11.5 -26.5q0 -17 -11.5 -27.5t-28.5 -10.5h-290q-33 0 -52 18t-19 44q0 14 5.5 27.5t14.5 24.5l297 326h-263q-16 0 -28 10t-12 27t12 27.5t28 10.5h278q32 0 50 -16.5t20 -41.5q3 -32 -24 -62zM241 689q19 0 32 -12.5t13 -32.5
q0 -19 -13 -32t-32 -13t-32 13t-13 32q0 20 13 32.5t32 12.5z" />
    <glyph glyph-name="grave" unicode="`" horiz-adv-x="360" 
d="M264 818q19 -10 19 -31q0 -14 -10 -24t-24 -10q-8 0 -20 6l-133 69q-18 10 -18 30q0 14 9.5 24t23.5 10q8 0 18 -4z" />
    <glyph glyph-name="acute" unicode="&#xb4;" horiz-adv-x="360" 
d="M232 888q10 4 17 4q14 0 24 -10t10 -24q0 -20 -19 -30l-135 -70q-8 -5 -18 -5q-14 0 -23.5 10t-9.5 24q0 21 18 31z" />
    <glyph glyph-name="circumflex" unicode="&#x2c6;" horiz-adv-x="360" 
d="M302 812q6 -5 10.5 -12t4.5 -16q0 -14 -10 -24t-24 -10q-12 0 -23 8l-81 61l-81 -61q-11 -8 -22 -8q-15 0 -24.5 10t-9.5 24q0 9 4 16t10 12l93 70q8 5 15 8.5t15 3.5t14.5 -3.5t14.5 -8.5z" />
    <glyph glyph-name="caron" unicode="&#x2c7;" horiz-adv-x="360" 
d="M208 762q-8 -5 -14.5 -8.5t-14.5 -3.5t-15 3.5t-15 8.5l-93 70q-14 10 -14 28q0 14 9.5 24t24.5 10q11 0 22 -8l81 -61l81 61q11 8 23 8q14 0 24 -10t10 -24q0 -9 -4.5 -16t-10.5 -12z" />
    <glyph glyph-name="tilde" unicode="&#x2dc;" horiz-adv-x="360" 
d="M236 818q10 0 17 4t13.5 9.5t13 9.5t15.5 4q15 0 24 -10t9 -24q0 -9 -4 -15.5t-10 -11.5q-17 -15 -36.5 -24.5t-37.5 -9.5t-33 5.5t-29 12.5t-26 12.5t-24 5.5q-10 0 -17 -4t-13.5 -9.5t-13 -9.5t-15.5 -4q-15 0 -24 10t-9 24q0 9 4.5 15.5t9.5 11.5q17 15 36.5 24.5
t38.5 9.5q18 0 33.5 -5.5t28.5 -12.5t25 -12.5t24 -5.5z" />
    <glyph glyph-name="dieresis" unicode="&#xa8;" horiz-adv-x="360" 
d="M101 851q19 0 32 -12.5t13 -32.5q0 -19 -13 -32t-32 -13q-20 0 -32.5 13t-12.5 32q0 20 12.5 32.5t32.5 12.5zM259 851q20 0 32.5 -12.5t12.5 -32.5q0 -19 -12.5 -32t-32.5 -13q-19 0 -32 13t-13 32q0 20 13 32.5t32 12.5z" />
    <glyph glyph-name="macron" unicode="&#xaf;" horiz-adv-x="360" 
d="M264 836q14 0 24 -10t10 -24q0 -15 -10 -25t-24 -10h-164q-15 0 -25 10t-10 25q0 14 10 24t25 10h164z" />
    <glyph glyph-name="breve" unicode="&#x2d8;" horiz-adv-x="360" 
d="M180 823q20 0 36 12.5t21 32.5q3 11 12.5 17.5t20.5 6.5q14 0 24 -10t10 -24q0 -6 -3 -15q-12 -36 -44 -61t-77 -25t-77 25t-44 61q-3 9 -3 15q0 14 10 24t24 10q11 0 20 -6.5t13 -17.5q5 -20 21 -32.5t36 -12.5z" />
    <glyph glyph-name="ring" unicode="&#x2da;" horiz-adv-x="362" 
d="M91 844q0 19 7.5 36.5t21 31t30.5 21t37 7.5t37.5 -7.5t30.5 -21t20.5 -31t7.5 -36.5q0 -40 -28 -68t-68 -28q-20 0 -37 7.5t-30.5 20.5t-21 30.5t-7.5 37.5zM143 844q0 -19 13 -32t31 -13q19 0 31.5 13t12.5 32q0 18 -12.5 31t-31.5 13q-18 0 -31 -13t-13 -31z" />
    <glyph glyph-name="hungarumlaut" unicode="&#x2dd;" horiz-adv-x="360" 
d="M82 761q-11 -9 -23 -9q-14 0 -24 10t-10 24q0 16 10 25l100 92q11 9 22 9q14 0 24.5 -10t10.5 -25t-11 -25zM231 761q-11 -9 -23 -9q-14 0 -24.5 10t-10.5 24q0 16 11 25l100 92q9 9 22 9q14 0 24.5 -10t10.5 -25t-11 -25z" />
    <glyph glyph-name="dotaccent" unicode="&#x2d9;" horiz-adv-x="360" 
d="M180 851q19 0 32 -12.5t13 -32.5q0 -19 -13 -32t-32 -13t-32 13t-13 32q0 20 13 32.5t32 12.5z" />
    <glyph glyph-name="ogonek" unicode="&#x2db;" horiz-adv-x="360" 
d="M238 -2q-45 -20 -64.5 -44t-19.5 -47q0 -24 15.5 -36t35.5 -12q21 0 39 13q11 8 23.5 6.5t20.5 -12.5t5.5 -24.5t-13.5 -21.5q-14 -11 -35 -18.5t-47 -7.5q-23 0 -43 8t-35 22t-24 34.5t-9 45.5q0 43 31.5 80t91.5 69q5 3 9.5 3.5t8.5 0.5q12 0 21 -9t9 -21
q0 -8 -4.5 -16t-15.5 -13z" />
    <glyph glyph-name="quotedbl" unicode="&#x22;" horiz-adv-x="349" 
d="M145 525q0 -17 -11 -28t-28 -11t-28.5 11t-11.5 28v136q0 17 11.5 28.5t28.5 11.5t28 -11.5t11 -28.5v-136zM283 525q0 -17 -11.5 -28t-28.5 -11t-28 11t-11 28v136q0 17 11 28.5t28 11.5t28.5 -11.5t11.5 -28.5v-136z" />
    <glyph glyph-name="currency" unicode="&#xa4;" horiz-adv-x="621" 
d="M311 560q32 0 61.5 -10.5t52.5 -29.5l79 79q12 13 28.5 13t28.5 -12q11 -11 11 -27.5t-12 -28.5l-85 -86q8 -17 12 -37t5 -40q1 -31 0 -62q-1 -21 -5 -40t-12 -36l85 -85q12 -12 12 -29t-11 -28q-12 -11 -28 -10.5t-29 12.5l-78 77q-48 -40 -115 -40q-68 0 -116 40
l-78 -77q-12 -12 -28 -12.5t-29 10.5q-11 11 -10.5 28t11.5 29l86 85q-17 35 -18 76q-1 31 0 62q2 43 18 77l-85 86q-12 12 -12.5 28.5t10.5 27.5q13 12 29.5 12t27.5 -13l79 -79q23 19 52.5 29.5t62.5 10.5zM311 487q-23 0 -42 -8.5t-33 -23t-23 -34t-10 -41.5
q-2 -16 -1.5 -30.5t1.5 -29.5q1 -23 9.5 -42.5t23 -34t33.5 -23t42 -8.5q22 0 41 8.5t33 23t22.5 34t9.5 42.5q1 26 0 60q-2 45 -31.5 76t-74.5 31z" />
    <glyph glyph-name="perthousand" unicode="&#x2030;" horiz-adv-x="1095" 
d="M189 709q31 0 57.5 -11.5t46.5 -31.5t31.5 -47t13.5 -58q1 -25 0 -50q-2 -30 -14 -57t-31.5 -47.5t-46 -32t-57.5 -11.5t-57.5 11.5t-46.5 32t-32.5 47.5t-13.5 57q-2 26 0 50q1 31 13 58t32.5 47t47 31.5t57.5 11.5zM189 636q-32 0 -52.5 -22.5t-23.5 -55.5
q-2 -22 0 -44q2 -33 23 -55t53 -22t53 22t23 56q2 19 0 43q-2 33 -23 55.5t-53 22.5zM560 336q30 0 56.5 -11.5t46.5 -32t32 -47.5t14 -57q1 -25 0 -50q-2 -30 -14 -57t-32 -47.5t-46.5 -32t-56.5 -11.5q-31 0 -57.5 11.5t-47 32t-32.5 47.5t-14 57q-2 26 0 50q1 30 13.5 57
t32.5 47.5t47 32t58 11.5zM559 263q-32 0 -52 -22.5t-23 -55.5q-2 -22 0 -44q2 -33 22.5 -55t52.5 -22t53 22t23 55q2 20 0 44q-2 33 -23 55.5t-53 22.5zM905 336q31 0 57.5 -11.5t46.5 -32t31.5 -47.5t13.5 -57q1 -25 0 -50q-2 -30 -14 -57t-31.5 -47.5t-46 -32
t-57.5 -11.5t-57.5 11.5t-46.5 32t-32.5 47.5t-13.5 57q-2 26 0 50q1 30 13 57t32.5 47.5t47 32t57.5 11.5zM904 263q-32 0 -52 -22.5t-23 -55.5q-2 -22 0 -44q2 -33 22.5 -55t52.5 -22t53.5 22t23.5 55q2 20 0 44q-2 33 -23.5 55.5t-53.5 22.5zM545 604q11 12 27 13t27 -9
q12 -11 12.5 -26.5t-9.5 -27.5q-47 -54 -96.5 -111t-99.5 -114.5t-99.5 -115t-96.5 -111.5q-11 -11 -26.5 -12.5t-27.5 9.5q-11 10 -11.5 26t9.5 27z" />
    <glyph glyph-name="divide" unicode="&#xf7;" horiz-adv-x="628" 
d="M101 311q-17 0 -29 11t-12 28t12 28.5t29 11.5h426q17 0 29 -11.5t12 -28.5t-12 -28t-29 -11h-426zM261 537q0 21 15.5 36.5t37.5 15.5q21 0 37 -15.5t16 -36.5q0 -22 -16 -37.5t-37 -15.5q-22 0 -37.5 15.5t-15.5 37.5zM261 164q0 22 15.5 37.5t37.5 15.5q21 0 37 -15.5
t16 -37.5q0 -21 -16 -36.5t-37 -15.5q-22 0 -37.5 15.5t-15.5 36.5z" />
    <glyph glyph-name="fl" unicode="&#xfb02;" horiz-adv-x="662" 
d="M111 555q0 74 39.5 118.5t117.5 44.5q26 0 50 -3t38 -8q32 -9 32 -38q0 -13 -9.5 -24.5t-29.5 -11.5q-17 0 -35.5 4.5t-43.5 4.5q-41 0 -59.5 -24.5t-18.5 -68.5v-40h140q16 0 27.5 -10.5t11.5 -26.5t-11.5 -26.5t-27.5 -10.5h-140v-397q0 -18 -11.5 -30t-28.5 -12
t-29 12t-12 30v397h-35q-16 0 -27.5 10.5t-11.5 26.5t11.5 26.5t27.5 10.5h35v46zM529 710q17 0 29 -12t12 -29v-631q0 -18 -11.5 -30t-29.5 -12q-17 0 -28.5 12t-11.5 30v631q0 17 11.5 29t28.5 12z" />
    <glyph glyph-name="Q.alt" horiz-adv-x="730" 
d="M325 -7q-53 6 -98 29.5t-78.5 60.5t-53.5 84.5t-24 101.5q-8 82 0 162q4 59 27.5 110t62.5 88.5t91 59t112 21.5t112.5 -21.5t91.5 -59.5t63 -89t28 -109q6 -80 0 -162q-4 -54 -24.5 -101.5t-54.5 -84.5t-79 -60.5t-98 -29.5v-117q0 -17 -11 -28.5t-28 -11.5
q-16 0 -27.5 11.5t-11.5 28.5v117zM403 72q36 6 66.5 23.5t53 44t37 60.5t17.5 73q8 77 0 155q-4 44 -21.5 81t-45.5 64t-65.5 42.5t-80.5 15.5q-44 0 -81 -15.5t-64.5 -42.5t-44.5 -64t-21 -81q-8 -78 0 -155q7 -79 53.5 -133.5t118.5 -67.5v125q0 17 11 28.5t28 11.5
t28 -11.5t11 -28.5v-125z" />
    <glyph glyph-name="r.alt" horiz-adv-x="377" 
d="M256 532q42 0 78 -9q17 -5 24.5 -15t7.5 -24q0 -12 -9.5 -24.5t-30.5 -12.5q-16 0 -30 4t-34 4q-31 0 -55.5 -8.5t-39.5 -21.5v-384q0 -17 -12 -29.5t-29 -12.5t-29 12.5t-12 29.5v403q0 13 4.5 20t12.5 14q22 20 61.5 37t92.5 17z" />
    <glyph glyph-name="zero.onum" horiz-adv-x="629" 
d="M314 534q50 0 93 -15t76 -42.5t54.5 -67.5t27.5 -90q5 -32 4.5 -62.5t-5.5 -61.5q-6 -48 -27 -87t-54 -66t-76 -42t-93 -15t-93 15t-76 43t-54.5 68t-27.5 90q-4 32 -4 59.5t5 64.5q6 48 27 86.5t54 66t76 42t93 14.5zM314 459q-71 0 -118 -40t-55 -115q-3 -27 -3 -45.5
t3 -43.5q8 -75 55 -114.5t118 -39.5q72 0 118.5 40t54.5 115q3 26 3 45t-3 44q-8 75 -54.5 114.5t-118.5 39.5z" />
    <glyph glyph-name="one.onum" horiz-adv-x="460" 
d="M282 527q18 0 29.5 -12.5t11.5 -29.5v-447q0 -18 -12 -30t-29 -12t-29 12.5t-12 29.5v389l-136 -59q-17 -7 -32.5 -2t-22.5 21q-7 15 -0.5 31t22.5 23l187 80q12 6 23 6z" />
    <glyph glyph-name="two.onum" horiz-adv-x="588" 
d="M58 65q0 39 13 68.5t38 52t61 39.5t80 31q52 16 86 29.5t53.5 27t27 27t7.5 29.5q0 36 -31 62t-105 26q-53 0 -93 -20t-60 -46q-7 -8 -16.5 -15t-20.5 -7q-18 0 -27.5 10t-9.5 26q0 12 5.5 22t13.5 20q13 16 34 31.5t48 27.5t58.5 19t67.5 7q56 0 97 -13t67.5 -35
t39.5 -51.5t13 -63.5q0 -28 -10 -52.5t-32.5 -45.5t-59 -39t-89.5 -33q-50 -14 -83.5 -27t-54.5 -27t-30 -30t-9 -36h341q17 0 29 -12t12 -28q0 -17 -12 -28t-29 -11h-360q-26 0 -43 16t-17 49z" />
    <glyph glyph-name="three.onum" horiz-adv-x="591" 
d="M300 255q45 1 83 -12t65.5 -38t43.5 -60t16 -77q0 -65 -29.5 -115t-84.5 -83t-133 -48t-175 -10q-18 1 -29.5 11t-12.5 27q-1 19 12 31t35 10q75 -6 136.5 3t106 31.5t68.5 58t24 82.5q0 57 -37.5 89t-97.5 32q-29 0 -44.5 -4t-28.5 -4q-16 0 -27.5 10.5t-11.5 27.5
t12 29l176 190h-282q-18 0 -30 11t-12 28q0 18 12 29t30 11h322q26 0 43.5 -16t17.5 -41q0 -9 -3 -19t-11 -19z" />
    <glyph glyph-name="four.onum" horiz-adv-x="665" 
d="M500 0v-131q0 -17 -12 -29t-29 -12t-28.5 12t-11.5 29v131h-291q-31 0 -51 18t-18 48q0 23 18 47l266 347q22 29 41.5 48.5t48.5 19.5q23 0 36.5 -9.5t20 -22.5t8.5 -27.5t2 -24.5v-365h74q17 0 28.5 -11t11.5 -29q0 -16 -12 -27.5t-28 -11.5h-74zM419 79v354l-272 -354
h272z" />
    <glyph glyph-name="five.onum" horiz-adv-x="606" 
d="M543 84q0 -67 -30.5 -118.5t-86 -86t-134.5 -52.5t-175 -18q-18 0 -30.5 10t-12.5 30t12 30t29 10q79 0 143 11.5t109 35t69.5 60t24.5 86.5q0 53 -38 85.5t-99 32.5q-29 0 -54 -5t-45.5 -11.5t-36 -14t-26.5 -13.5q-16 -7 -28.5 -6t-21.5 7.5t-13.5 16.5t-4.5 22v252
q0 38 21 52.5t48 14.5h297q18 0 30 -11.5t12 -28.5t-12.5 -28t-29.5 -11h-290v-197q30 15 67 27t92 12q49 0 88.5 -14.5t67.5 -40.5t43 -61.5t15 -77.5z" />
    <glyph glyph-name="six.onum" horiz-adv-x="668" 
d="M508 623q-14 0 -34.5 4t-61.5 4q-100 0 -164.5 -58.5t-75.5 -168.5q32 14 77.5 28.5t104.5 14.5q55 0 99.5 -15t76 -43.5t48.5 -69.5t17 -92q0 -48 -15.5 -91t-47 -75.5t-78.5 -51.5t-110 -19q-75 0 -127 28t-82.5 78t-42.5 118.5t-7 149.5q10 168 95.5 257t231.5 89
q22 0 50.5 -2.5t51.5 -7.5q13 -3 23 -13t10 -26q0 -15 -10 -26.5t-29 -11.5zM347 370q-59 0 -103.5 -16.5t-77.5 -34.5q-7 -125 40 -187.5t138 -62.5q43 0 74.5 12.5t52.5 33.5t31.5 50t10.5 62q0 69 -42 106t-124 37z" />
    <glyph glyph-name="seven.onum" horiz-adv-x="527" 
d="M443 515q26 0 43 -15t17 -40q0 -11 -3.5 -20t-9.5 -19q-66 -109 -112.5 -189.5t-79 -145.5t-54 -122.5t-36.5 -121.5q-6 -24 -24 -29.5t-34 1.5q-17 8 -19.5 23.5t2.5 31.5q16 60 39 118.5t55.5 124.5t77 144.5t104.5 179.5h-333q-17 0 -29.5 11t-12.5 28q0 18 12.5 29
t29.5 11h367z" />
    <glyph glyph-name="eight.onum" horiz-adv-x="681" 
d="M341 631q-88 0 -126.5 -30.5t-38.5 -79.5q0 -56 44 -86.5t120 -30.5q78 0 120.5 32t42.5 87q0 48 -37.5 78t-124.5 30zM336 324q-88 0 -131.5 -35.5t-43.5 -93.5q0 -27 10 -50t31.5 -40t55.5 -26.5t81 -9.5q48 0 82.5 10t56.5 27.5t32.5 40t10.5 47.5q0 59 -48.5 94.5
t-136.5 35.5zM341 -10q-65 0 -114.5 15t-82.5 41.5t-49.5 63.5t-16.5 82q0 70 35 114t89 61q-44 17 -75.5 55.5t-31.5 97.5q0 90 63 140t181 50q120 0 183 -50.5t63 -135.5q0 -62 -29.5 -99.5t-75.5 -56.5q54 -17 88.5 -61t34.5 -114q0 -45 -16.5 -82.5t-49.5 -64t-82 -41.5
t-114 -15z" />
    <glyph glyph-name="nine.onum" horiz-adv-x="663" 
d="M156 -78q60 3 114.5 8.5t99 26t75.5 62t44 116.5q-35 -17 -80.5 -29t-97.5 -12q-54 0 -98 15.5t-75 45t-48 71t-17 93.5q0 50 16 93.5t47.5 75.5t78 50t107.5 18q73 0 123.5 -24.5t81 -69.5t43 -109.5t9.5 -144.5q-4 -103 -32 -172t-80 -111.5t-129 -61.5t-179 -22
q-18 -1 -30 10t-13 28q-1 16 9.5 29t30.5 14zM323 171q54 0 93 14.5t81 34.5q2 64 -6 112.5t-28.5 80.5t-55 48t-85.5 16q-86 0 -126.5 -44t-40.5 -113q0 -70 40 -109.5t128 -39.5z" />
    <glyph glyph-name="sterling.alt" horiz-adv-x="587" 
d="M166 368l22 103q25 127 78 183t142 56q39 0 66.5 -11t41.5 -21q14 -9 17 -23t-5 -28q-8 -15 -23 -18t-32 6q-16 7 -32.5 11.5t-40.5 4.5t-44 -8t-36 -27.5t-29 -52t-23 -81.5q-5 -26 -10.5 -49t-10.5 -45h163q17 0 29.5 -10.5t12.5 -28.5q0 -17 -12.5 -26t-29.5 -9h-181
q-34 -127 -65 -192q-5 -10 -5 -15q0 -8 11 -8h329q16 0 28.5 -11.5t12.5 -28.5t-12 -28t-30 -11h-326q-42 0 -68 19.5t-26 57.5q0 21 10 43t23 55q8 21 17.5 50.5t20.5 68.5h-51q-17 0 -29 9t-12 26q0 18 12 28.5t29 10.5h68z" />
    <glyph glyph-name="commaaccent" horiz-adv-x="360" 
d="M232 -99q0 -19 -5 -43.5t-20 -52.5q-7 -12 -18 -20t-25 -8q-17 0 -27 11.5t-10 25.5q0 10 3.5 17l8 16t8 21.5t3.5 35.5v26q0 17 12 28.5t29 11.5t29 -11.5t12 -28.5v-29z" />
    <glyph glyph-name="caronSlovak" horiz-adv-x="360" 
d="M204 575q-7 -11 -16.5 -18t-21.5 -7q-17 0 -27.5 10.5t-10.5 24.5q0 9 4 17t9.5 18t9.5 23t4 31v22q0 17 11 28.5t27 11.5q17 0 28 -11.5t11 -28.5v-20q0 -20 -6.5 -47.5t-21.5 -53.5z" />
    <glyph glyph-name="g.alt" horiz-adv-x="548" 
d="M63 -16q13 0 22.5 -7t15.5 -15q29 -39 69 -60.5t96 -21.5q60 0 98.5 20t38.5 58q0 24 -21.5 40t-72.5 16h-96q-35 0 -59.5 8t-40.5 21t-23.5 30.5t-7.5 36.5q0 27 14 49t37 33q-41 24 -65 64.5t-24 91.5q0 37 14 70.5t40 59t64.5 40.5t86.5 15q38 0 63 -8t44 -16h129
q16 0 27.5 -11t11.5 -27t-11.5 -26t-27.5 -10h-58q11 -16 19.5 -37t8.5 -51q0 -36 -13.5 -68.5t-38.5 -57t-61.5 -39.5t-81.5 -15h-17q-43 0 -62.5 -10.5t-19.5 -29.5q0 -11 9.5 -22t41.5 -11h103q85 0 128.5 -36.5t43.5 -98.5q0 -30 -13.5 -58.5t-41 -50.5t-69 -35
t-97.5 -13q-43 0 -78.5 9t-64 24t-49 33.5t-33.5 37.5q-6 9 -10.5 19t-4.5 24t10.5 24.5t26.5 10.5zM249 235q58 0 92.5 31.5t34.5 82.5q0 49 -33 79.5t-92 30.5q-60 0 -94.5 -30.5t-34.5 -80.5q0 -51 34.5 -82t92.5 -31z" />
    <glyph glyph-name="gbreve.alt" horiz-adv-x="548" 
d="M63 -16q13 0 22.5 -7t15.5 -15q29 -39 69 -60.5t96 -21.5q60 0 98.5 20t38.5 58q0 24 -21.5 40t-72.5 16h-96q-35 0 -59.5 8t-40.5 21t-23.5 30.5t-7.5 36.5q0 27 14 49t37 33q-41 24 -65 64.5t-24 91.5q0 37 14 70.5t40 59t64.5 40.5t86.5 15q38 0 63 -8t44 -16h129
q16 0 27.5 -11t11.5 -27t-11.5 -26t-27.5 -10h-58q11 -16 19.5 -37t8.5 -51q0 -36 -13.5 -68.5t-38.5 -57t-61.5 -39.5t-81.5 -15h-17q-43 0 -62.5 -10.5t-19.5 -29.5q0 -11 9.5 -22t41.5 -11h103q85 0 128.5 -36.5t43.5 -98.5q0 -30 -13.5 -58.5t-41 -50.5t-69 -35
t-97.5 -13q-43 0 -78.5 9t-64 24t-49 33.5t-33.5 37.5q-6 9 -10.5 19t-4.5 24t10.5 24.5t26.5 10.5zM249 235q58 0 92.5 31.5t34.5 82.5q0 49 -33 79.5t-92 30.5q-60 0 -94.5 -30.5t-34.5 -80.5q0 -51 34.5 -82t92.5 -31zM247 650q20 0 36 12.5t21 32.5q3 11 12.5 17.5
t20.5 6.5q14 0 24 -10t10 -24q0 -6 -3 -15q-12 -36 -44 -61t-77 -25t-77 25t-44 61q-3 9 -3 15q0 14 10 24t24 10q11 0 20 -6.5t13 -17.5q5 -20 21 -32.5t36 -12.5z" />
    <glyph glyph-name="gdotaccent.alt" horiz-adv-x="548" 
d="M63 -16q13 0 22.5 -7t15.5 -15q29 -39 69 -60.5t96 -21.5q60 0 98.5 20t38.5 58q0 24 -21.5 40t-72.5 16h-96q-35 0 -59.5 8t-40.5 21t-23.5 30.5t-7.5 36.5q0 27 14 49t37 33q-41 24 -65 64.5t-24 91.5q0 37 14 70.5t40 59t64.5 40.5t86.5 15q38 0 63 -8t44 -16h129
q16 0 27.5 -11t11.5 -27t-11.5 -26t-27.5 -10h-58q11 -16 19.5 -37t8.5 -51q0 -36 -13.5 -68.5t-38.5 -57t-61.5 -39.5t-81.5 -15h-17q-43 0 -62.5 -10.5t-19.5 -29.5q0 -11 9.5 -22t41.5 -11h103q85 0 128.5 -36.5t43.5 -98.5q0 -30 -13.5 -58.5t-41 -50.5t-69 -35
t-97.5 -13q-43 0 -78.5 9t-64 24t-49 33.5t-33.5 37.5q-6 9 -10.5 19t-4.5 24t10.5 24.5t26.5 10.5zM249 235q58 0 92.5 31.5t34.5 82.5q0 49 -33 79.5t-92 30.5q-60 0 -94.5 -30.5t-34.5 -80.5q0 -51 34.5 -82t92.5 -31zM251 694q19 0 32 -12.5t13 -32.5q0 -19 -13 -32
t-32 -13t-32 13t-13 32q0 20 13 32.5t32 12.5z" />
    <glyph glyph-name="gcommaaccent.alt" horiz-adv-x="548" 
d="M63 -16q13 0 22.5 -7t15.5 -15q29 -39 69 -60.5t96 -21.5q60 0 98.5 20t38.5 58q0 24 -21.5 40t-72.5 16h-96q-35 0 -59.5 8t-40.5 21t-23.5 30.5t-7.5 36.5q0 27 14 49t37 33q-41 24 -65 64.5t-24 91.5q0 37 14 70.5t40 59t64.5 40.5t86.5 15q38 0 63 -8t44 -16h129
q16 0 27.5 -11t11.5 -27t-11.5 -26t-27.5 -10h-58q11 -16 19.5 -37t8.5 -51q0 -36 -13.5 -68.5t-38.5 -57t-61.5 -39.5t-81.5 -15h-17q-43 0 -62.5 -10.5t-19.5 -29.5q0 -11 9.5 -22t41.5 -11h103q85 0 128.5 -36.5t43.5 -98.5q0 -30 -13.5 -58.5t-41 -50.5t-69 -35
t-97.5 -13q-43 0 -78.5 9t-64 24t-49 33.5t-33.5 37.5q-6 9 -10.5 19t-4.5 24t10.5 24.5t26.5 10.5zM249 235q58 0 92.5 31.5t34.5 82.5q0 49 -33 79.5t-92 30.5q-60 0 -94.5 -30.5t-34.5 -80.5q0 -51 34.5 -82t92.5 -31zM286 710q0 -19 -5 -43.5t-20 -52.5q-7 -12 -18 -20
t-25 -8q-17 0 -27 11.5t-10 25.5q0 10 3.5 17l8 16t8 21.5t3.5 35.5v26q0 17 12 28.5t29 11.5t29 -11.5t12 -28.5v-29z" />
    <glyph glyph-name="B" unicode="B" horiz-adv-x="669" 
d="M182 79h210q70 0 103 31.5t33 91.5q0 58 -34.5 89.5t-91.5 31.5h-220v-244zM387 401q64 0 93.5 29t29.5 81q0 111 -123 111h-205v-221h205zM612 200q0 -54 -16.5 -92t-45 -62t-66.5 -35t-81 -11h-233q-34 0 -52 20t-18 48v565q0 29 18 48.5t52 19.5h222q49 0 86.5 -14.5
t62.5 -39.5t38 -57.5t13 -68.5q0 -70 -27.5 -106t-66.5 -50v-2q54 -13 84 -56t30 -107z" />
    <glyph glyph-name="A" unicode="A" horiz-adv-x="675" 
d="M650 41q0 -16 -10 -29t-30 -13q-13 0 -23.5 7t-15.5 19l-74 209h-319l-74 -209q-5 -12 -15.5 -19t-23.5 -7q-20 0 -30 13t-10 29q0 9 2 14l208 580q14 39 41.5 57.5t61.5 18.5t61 -18.5t41 -57.5l208 -580q2 -4 2 -14zM206 312h263l-105 299q-7 20 -26 20t-26 -20z" />
    </font>
</defs>
</svg>
